  0
SECTION
  2
HEADER
  9
$ACADVER
  1
AC1015
  9
$ACADMAINTVER
 70
    20
  9
$DWGCODEPAGE
  3
ANSI_932
  9
$INSBASE
 10
0.0
 20
0.0
 30
0.0
  9
$EXTMIN
 10
2761.158656656433
 20
-599.4134021931895
 30
-0.0000000000112498
  9
$EXTMAX
 10
3601.437213299165
 20
-5.374593891168842
 30
0.0000000000002956
  9
$LIMMIN
 10
0.0
 20
0.0
  9
$LIMMAX
 10
841.0
 20
594.0
  9
$ORTHOMODE
 70
     1
  9
$REGENMODE
 70
     1
  9
$FILLMODE
 70
     1
  9
$QTEXTMODE
 70
     0
  9
$MIRRTEXT
 70
     0
  9
$LTSCALE
 40
1.0
  9
$ATTMODE
 70
     1
  9
$TEXTSIZE
 40
3.5
  9
$TRACEWID
 40
0.05
  9
$TEXTSTYLE
  7
STYLE1
  9
$CLAYER
  8
外形１
  9
$CELTYPE
  6
ByLayer
  9
$CECOLOR
 62
   256
  9
$CELTSCALE
 40
1.0
  9
$DISPSILH
 70
     0
  9
$DIMSCALE
 40
1.0
  9
$DIMASZ
 40
5.0
  9
$DIMEXO
 40
0.5
  9
$DIMDLI
 40
15.0
  9
$DIMRND
 40
0.0
  9
$DIMDLE
 40
0.0
  9
$DIMEXE
 40
1.5
  9
$DIMTP
 40
0.0
  9
$DIMTM
 40
0.0
  9
$DIMTXT
 40
10.0
  9
$DIMCEN
 40
0.5
  9
$DIMTSZ
 40
0.0
  9
$DIMTOL
 70
     0
  9
$DIMLIM
 70
     0
  9
$DIMTIH
 70
     0
  9
$DIMTOH
 70
     0
  9
$DIMSE1
 70
     0
  9
$DIMSE2
 70
     0
  9
$DIMTAD
 70
     1
  9
$DIMZIN
 70
     8
  9
$DIMBLK
  1
Open
  9
$DIMASO
 70
     1
  9
$DIMSHO
 70
     1
  9
$DIMPOST
  1

  9
$DIMAPOST
  1

  9
$DIMALT
 70
     0
  9
$DIMALTD
 70
     2
  9
$DIMALTF
 40
25.4
  9
$DIMLFAC
 40
1.0
  9
$DIMTOFL
 70
     1
  9
$DIMTVP
 40
15.0
  9
$DIMTIX
 70
     0
  9
$DIMSOXD
 70
     0
  9
$DIMSAH
 70
     0
  9
$DIMBLK1
  1
Open
  9
$DIMBLK2
  1
Open
  9
$DIMSTYLE
  2
STANDARD2
  9
$DIMCLRD
 70
     4
  9
$DIMCLRE
 70
     4
  9
$DIMCLRT
 70
     3
  9
$DIMTFAC
 40
1.0
  9
$DIMGAP
 40
2.0
  9
$DIMJUST
 70
     0
  9
$DIMSD1
 70
     0
  9
$DIMSD2
 70
     0
  9
$DIMTOLJ
 70
     1
  9
$DIMTZIN
 70
     0
  9
$DIMALTZ
 70
     0
  9
$DIMALTTZ
 70
     0
  9
$DIMUPT
 70
     0
  9
$DIMDEC
 70
     1
  9
$DIMTDEC
 70
     1
  9
$DIMALTU
 70
     2
  9
$DIMALTTD
 70
     2
  9
$DIMTXSTY
  7
Standard
  9
$DIMAUNIT
 70
     0
  9
$DIMADEC
 70
     0
  9
$DIMALTRND
 40
0.0
  9
$DIMAZIN
 70
     0
  9
$DIMDSEP
 70
    46
  9
$DIMATFIT
 70
     3
  9
$DIMFRAC
 70
     0
  9
$DIMLDRBLK
  1
Open
  9
$DIMLUNIT
 70
     2
  9
$DIMLWD
 70
    -2
  9
$DIMLWE
 70
    -2
  9
$DIMTMOVE
 70
     0
  9
$LUNITS
 70
     2
  9
$LUPREC
 70
     4
  9
$SKETCHINC
 40
0.1
  9
$FILLETRAD
 40
0.0
  9
$AUNITS
 70
     0
  9
$AUPREC
 70
     0
  9
$MENU
  1
.
  9
$ELEVATION
 40
0.0
  9
$PELEVATION
 40
0.0
  9
$THICKNESS
 40
0.0
  9
$LIMCHECK
 70
     0
  9
$CHAMFERA
 40
0.0
  9
$CHAMFERB
 40
0.0
  9
$CHAMFERC
 40
0.0
  9
$CHAMFERD
 40
0.0
  9
$SKPOLY
 70
     0
  9
$TDCREATE
 40
2453353.717125822
  9
$TDUCREATE
 40
2453353.342125822
  9
$TDUPDATE
 40
2455041.420480139
  9
$TDUUPDATE
 40
2455041.045480139
  9
$TDINDWG
 40
45.1901949537
  9
$TDUSRTIMER
 40
45.1901370833
  9
$USRTIMER
 70
     1
  9
$ANGBASE
 50
0.0
  9
$ANGDIR
 70
     0
  9
$PDMODE
 70
     0
  9
$PDSIZE
 40
0.0
  9
$PLINEWID
 40
0.0
  9
$SPLFRAME
 70
     0
  9
$SPLINETYPE
 70
     6
  9
$SPLINESEGS
 70
     8
  9
$HANDSEED
  5
77035
  9
$SURFTAB1
 70
     6
  9
$SURFTAB2
 70
     6
  9
$SURFTYPE
 70
     6
  9
$SURFU
 70
     6
  9
$SURFV
 70
     6
  9
$UCSBASE
  2

  9
$UCSNAME
  2

  9
$UCSORG
 10
0.0
 20
0.0
 30
0.0
  9
$UCSXDIR
 10
1.0
 20
0.0
 30
0.0
  9
$UCSYDIR
 10
0.0
 20
1.0
 30
0.0
  9
$UCSORTHOREF
  2

  9
$UCSORTHOVIEW
 70
     0
  9
$UCSORGTOP
 10
0.0
 20
0.0
 30
0.0
  9
$UCSORGBOTTOM
 10
0.0
 20
0.0
 30
0.0
  9
$UCSORGLEFT
 10
0.0
 20
0.0
 30
0.0
  9
$UCSORGRIGHT
 10
0.0
 20
0.0
 30
0.0
  9
$UCSORGFRONT
 10
0.0
 20
0.0
 30
0.0
  9
$UCSORGBACK
 10
0.0
 20
0.0
 30
0.0
  9
$PUCSBASE
  2

  9
$PUCSNAME
  2

  9
$PUCSORG
 10
0.0
 20
0.0
 30
0.0
  9
$PUCSXDIR
 10
1.0
 20
0.0
 30
0.0
  9
$PUCSYDIR
 10
0.0
 20
1.0
 30
0.0
  9
$PUCSORTHOREF
  2

  9
$PUCSORTHOVIEW
 70
     0
  9
$PUCSORGTOP
 10
0.0
 20
0.0
 30
0.0
  9
$PUCSORGBOTTOM
 10
0.0
 20
0.0
 30
0.0
  9
$PUCSORGLEFT
 10
0.0
 20
0.0
 30
0.0
  9
$PUCSORGRIGHT
 10
0.0
 20
0.0
 30
0.0
  9
$PUCSORGFRONT
 10
0.0
 20
0.0
 30
0.0
  9
$PUCSORGBACK
 10
0.0
 20
0.0
 30
0.0
  9
$USERI1
 70
     0
  9
$USERI2
 70
     0
  9
$USERI3
 70
     0
  9
$USERI4
 70
     0
  9
$USERI5
 70
     0
  9
$USERR1
 40
0.0
  9
$USERR2
 40
0.0
  9
$USERR3
 40
0.0
  9
$USERR4
 40
0.0
  9
$USERR5
 40
0.0
  9
$WORLDVIEW
 70
     1
  9
$SHADEDGE
 70
     3
  9
$SHADEDIF
 70
    70
  9
$TILEMODE
 70
     1
  9
$MAXACTVP
 70
    48
  9
$PINSBASE
 10
0.0
 20
0.0
 30
0.0
  9
$PLIMCHECK
 70
     0
  9
$PEXTMIN
 10
0.0
 20
0.0
 30
0.0
  9
$PEXTMAX
 10
0.0
 20
0.0
 30
0.0
  9
$PLIMMIN
 10
0.0
 20
0.0
  9
$PLIMMAX
 10
12.0
 20
9.0
  9
$UNITMODE
 70
     0
  9
$VISRETAIN
 70
     1
  9
$PLINEGEN
 70
     0
  9
$PSLTSCALE
 70
     1
  9
$TREEDEPTH
 70
  3020
  9
$CMLSTYLE
  2
Standard
  9
$CMLJUST
 70
     0
  9
$CMLSCALE
 40
1.0
  9
$PROXYGRAPHICS
 70
     1
  9
$MEASUREMENT
 70
     0
  9
$CELWEIGHT
370
    -1
  9
$ENDCAPS
280
     0
  9
$JOINSTYLE
280
     0
  9
$LWDISPLAY
290
     0
  9
$INSUNITS
 70
     0
  9
$HYPERLINKBASE
  1

  9
$STYLESHEET
  1
aclt.ctb
  9
$XEDIT
290
     0
  9
$CEPSNTYPE
380
     0
  9
$PSTYLEMODE
290
     1
  9
$FINGERPRINTGUID
  2
{38CFB5B5-58A1-4A5F-8FF4-3E4BDF19FCE3}
  9
$VERSIONGUID
  2
{D5ABC2D1-6BCE-47FB-8B7B-F41927A2D7E1}
  9
$EXTNAMES
290
     1
  9
$PSVPSCALE
 40
0.0
  9
$OLESTARTUP
290
     0
  0
ENDSEC
  0
SECTION
  2
CLASSES
  0
CLASS
  1
ACDBDICTIONARYWDFLT
  2
AcDbDictionaryWithDefault
  3
ObjectDBX Classes
 90
        0
280
     0
281
     0
  0
CLASS
  1
ACDBPLACEHOLDER
  2
AcDbPlaceHolder
  3
ObjectDBX Classes
 90
        0
280
     0
281
     0
  0
CLASS
  1
LAYOUT
  2
AcDbLayout
  3
ObjectDBX Classes
 90
        0
280
     0
281
     0
  0
CLASS
  1
DICTIONARYVAR
  2
AcDbDictionaryVar
  3
ObjectDBX Classes
 90
        0
280
     0
281
     0
  0
CLASS
  1
TABLESTYLE
  2
AcDbTableStyle
  3
ObjectDBX Classes
 90
     4095
280
     0
281
     0
  0
CLASS
  1
PLOTSETTINGS
  2
AcDbPlotSettings
  3
ObjectDBX Classes
 90
        0
280
     0
281
     0
  0
CLASS
  1
DIMASSOC
  2
AcDbDimAssoc
  3
"AcDbDimAssoc|Product Desc:     AcDim ARX App For Dimension|Company:          Autodesk, Inc.|WEB Address:      www.autodesk.com"
 90
    32768
280
     0
281
     0
  0
CLASS
  1
MATERIAL
  2
AcDbMaterial
  3
ObjectDBX Classes
 90
     1153
280
     0
281
     0
  0
CLASS
  1
VISUALSTYLE
  2
AcDbVisualStyle
  3
ObjectDBX Classes
 90
     4095
280
     0
281
     0
  0
CLASS
  1
SCALE
  2
AcDbScale
  3
ObjectDBX Classes
 90
     1153
280
     0
281
     0
  0
CLASS
  1
MLEADERSTYLE
  2
AcDbMLeaderStyle
  3
ACDB_MLEADERSTYLE_CLASS
 90
     4095
280
     0
281
     0
  0
CLASS
  1
CELLSTYLEMAP
  2
AcDbCellStyleMap
  3
ObjectDBX Classes
 90
     1152
280
     0
281
     0
  0
CLASS
  1
SORTENTSTABLE
  2
AcDbSortentsTable
  3
ObjectDBX Classes
 90
    32768
280
     0
281
     0
  0
ENDSEC
  0
SECTION
  2
TABLES
  0
TABLE
  2
VPORT
  5
8
330
0
100
AcDbSymbolTable
 70
     1
  0
VPORT
  5
75755
330
8
100
AcDbSymbolTableRecord
100
AcDbViewportTableRecord
  2
*Active
 70
     0
 10
0.0
 20
0.0
 11
1.0
 21
1.0
 12
3181.297934977799
 22
-302.3939980421792
 13
0.0
 23
0.0
 14
1.0
 24
1.0
 15
0.0
 25
0.0
 16
0.0
 26
0.0
 36
1.0
 17
0.0
 27
0.0
 37
0.0
 40
600.9866306213425
 41
2.341796875
 42
50.0
 43
0.0
 44
0.0
 50
0.0
 51
0.0
 71
    16
 72
   100
 73
     1
 74
     1
 75
     0
 76
     0
 77
     0
 78
     2
281
     0
 65
     0
110
0.0
120
0.0
130
0.0
111
1.0
121
0.0
131
0.0
112
0.0
122
1.0
132
0.0
 79
     0
146
0.0
  0
ENDTAB
  0
TABLE
  2
LTYPE
  5
5
330
0
100
AcDbSymbolTable
 70
     4
  0
LTYPE
  5
14
330
5
100
AcDbSymbolTableRecord
100
AcDbLinetypeTableRecord
  2
ByBlock
 70
     0
  3

 72
    65
 73
     0
 40
0.0
  0
LTYPE
  5
15
330
5
100
AcDbSymbolTableRecord
100
AcDbLinetypeTableRecord
  2
ByLayer
 70
     0
  3

 72
    65
 73
     0
 40
0.0
  0
LTYPE
  5
16
330
5
100
AcDbSymbolTableRecord
100
AcDbLinetypeTableRecord
  2
Continuous
 70
     0
  3
実線
 72
    65
 73
     0
 40
0.0
  0
LTYPE
  5
72EC4
330
5
100
AcDbSymbolTableRecord
100
AcDbLinetypeTableRecord
  2
HIDDEN2
 70
     0
  3
_ _ _ _ _ _ _ _ _ _ _ _ _ _ _ _ _ _ _ _ _ _ _ _
 72
    65
 73
     2
 40
0.1875
 49
0.125
 74
     4
 75
     0
340
0
 46
1.0
 50
0.0
 44
0.0
 45
0.0
 49
-0.0625
 74
     4
 75
     0
340
0
 46
1.0
 50
0.0
 44
0.0
 45
0.0
  0
LTYPE
  5
72EC5
330
5
100
AcDbSymbolTableRecord
100
AcDbLinetypeTableRecord
  2
PHANTOM2
 70
     0
  3
___ _ _ ___ _ _ ___ _ _ ___ _ _ ___ _ _ ___ _ _
 72
    65
 73
     6
 40
1.25
 49
0.625
 74
     4
 75
     0
340
0
 46
1.0
 50
0.0
 44
0.0
 45
0.0
 49
-0.125
 74
     4
 75
     0
340
0
 46
1.0
 50
0.0
 44
0.0
 45
0.0
 49
0.125
 74
     4
 75
     0
340
0
 46
1.0
 50
0.0
 44
0.0
 45
0.0
 49
-0.125
 74
     4
 75
     0
340
0
 46
1.0
 50
0.0
 44
0.0
 45
0.0
 49
0.125
 74
     4
 75
     0
340
0
 46
1.0
 50
0.0
 44
0.0
 45
0.0
 49
-0.125
 74
     4
 75
     0
340
0
 46
1.0
 50
0.0
 44
0.0
 45
0.0
  0
LTYPE
  5
72EC6
330
5
100
AcDbSymbolTableRecord
100
AcDbLinetypeTableRecord
  2
CENTER
 70
     0
  3
____ _ ____ _ ____ _ ____ _ ____ _ ____ _ ____ 
 72
    65
 73
     4
 40
2.0
 49
1.25
 74
     4
 75
     0
340
0
 46
1.0
 50
0.0
 44
0.0
 45
0.0
 49
-0.25
 74
     4
 75
     0
340
0
 46
1.0
 50
0.0
 44
0.0
 45
0.0
 49
0.25
 74
     4
 75
     0
340
0
 46
1.0
 50
0.0
 44
0.0
 45
0.0
 49
-0.25
 74
     4
 75
     0
340
0
 46
1.0
 50
0.0
 44
0.0
 45
0.0
  0
ENDTAB
  0
TABLE
  2
LAYER
  5
2
102
{ACAD_XDICTIONARY
360
74D2A
102
}
330
0
100
AcDbSymbolTable
 70
    12
  0
LAYER
  5
10
102
{ACAD_XDICTIONARY
360
757AB
102
}
330
2
100
AcDbSymbolTableRecord
100
AcDbLayerTableRecord
  2
0
 70
     0
 62
     7
  6
Continuous
370
    -3
390
73405
  0
LAYER
  5
4B58
330
2
100
AcDbSymbolTableRecord
100
AcDbLayerTableRecord
  2
Defpoints
 70
     0
 62
   250
  6
Continuous
290
     0
370
    -3
390
73406
  0
LAYER
  5
4B96
102
{ACAD_XDICTIONARY
360
757B3
102
}
330
2
100
AcDbSymbolTableRecord
100
AcDbLayerTableRecord
  2
MOJI
 70
     0
 62
     7
  6
Continuous
370
    -3
390
73405
  0
LAYER
  5
3B4EC
102
{ACAD_XDICTIONARY
360
757B9
102
}
330
2
100
AcDbSymbolTableRecord
100
AcDbLayerTableRecord
  2
外形１
 70
     0
 62
     7
  6
Continuous
370
    -3
390
73405
  0
LAYER
  5
3B4ED
102
{ACAD_XDICTIONARY
360
757BB
102
}
330
2
100
AcDbSymbolTableRecord
100
AcDbLayerTableRecord
  2
文字
 70
     0
 62
     3
  6
Continuous
370
    -3
390
73408
  0
LAYER
  5
3B4EE
102
{ACAD_XDICTIONARY
360
757BD
102
}
330
2
100
AcDbSymbolTableRecord
100
AcDbLayerTableRecord
  2
仮想線
 70
     0
 62
     2
  6
PHANTOM2
370
    -3
390
7340C
  0
LAYER
  5
3B4EF
102
{ACAD_XDICTIONARY
360
757BF
102
}
330
2
100
AcDbSymbolTableRecord
100
AcDbLayerTableRecord
  2
寸法
 70
     0
 62
     4
  6
Continuous
370
    -3
390
7340A
  0
LAYER
  5
3B4F0
102
{ACAD_XDICTIONARY
360
757C1
102
}
330
2
100
AcDbSymbolTableRecord
100
AcDbLayerTableRecord
  2
センター
 70
     0
 62
     6
  6
CENTER
370
    -3
390
7340D
  0
LAYER
  5
3B4F1
102
{ACAD_XDICTIONARY
360
757C3
102
}
330
2
100
AcDbSymbolTableRecord
100
AcDbLayerTableRecord
  2
KAKURESEN
 70
     0
 62
   241
  6
HIDDEN2
370
    -3
390
7340E
  0
LAYER
  5
3B4F2
102
{ACAD_XDICTIONARY
360
757C5
102
}
330
2
100
AcDbSymbolTableRecord
100
AcDbLayerTableRecord
  2
細線
 70
     0
 62
    10
  6
Continuous
370
    -3
390
7340F
  0
LAYER
  5
3C519
102
{ACAD_XDICTIONARY
360
757C7
102
}
330
2
100
AcDbSymbolTableRecord
100
AcDbLayerTableRecord
  2
枠
 70
     0
 62
    21
  6
Continuous
370
    -3
390
73410
  0
LAYER
  5
3C51A
102
{ACAD_XDICTIONARY
360
757C9
102
}
330
2
100
AcDbSymbolTableRecord
100
AcDbLayerTableRecord
  2
外形２
 70
     0
 62
     5
  6
Continuous
370
    -3
390
73407
  0
ENDTAB
  0
TABLE
  2
STYLE
  5
3
330
0
100
AcDbSymbolTable
 70
     2
  0
STYLE
  5
11
330
3
100
AcDbSymbolTableRecord
100
AcDbTextStyleTableRecord
  2
Standard
 70
     0
 40
10.0
 41
1.0
 50
0.0
 71
     0
 42
15.0
  3
txt.shx
  4
bigfont.shx
  0
STYLE
  5
5EC2
330
3
100
AcDbSymbolTableRecord
100
AcDbTextStyleTableRecord
  2
STYLE1
 70
     0
 40
3.5
 41
1.0
 50
0.0
 71
     0
 42
3.5
  3
romans.shx
  4
C:\Program Files\AutoCAD LT\bigfont.shx
  0
ENDTAB
  0
TABLE
  2
VIEW
  5
6
330
0
100
AcDbSymbolTable
 70
     0
  0
ENDTAB
  0
TABLE
  2
UCS
  5
7
330
0
100
AcDbSymbolTable
 70
     0
  0
ENDTAB
  0
TABLE
  2
APPID
  5
9
330
0
100
AcDbSymbolTable
 70
     4
  0
APPID
  5
12
330
9
100
AcDbSymbolTableRecord
100
AcDbRegAppTableRecord
  2
ACAD
 70
     0
  0
APPID
  5
757A4
330
9
100
AcDbSymbolTableRecord
100
AcDbRegAppTableRecord
  2
ACAD_MLEADERVER
 70
     0
  0
APPID
  5
758A5
330
9
100
AcDbSymbolTableRecord
100
AcDbRegAppTableRecord
  2
ACAD_PSEXT
 70
     0
  0
APPID
  5
7597E
330
9
100
AcDbSymbolTableRecord
100
AcDbRegAppTableRecord
  2
ACAD_DSTYLE_DIMRADIAL_EXTENSION
 70
     0
  0
ENDTAB
  0
TABLE
  2
DIMSTYLE
  5
A
330
0
100
AcDbSymbolTable
 70
     3
100
AcDbDimStyleTable
 71
     2
340
52821
340
3B4F3
  0
DIMSTYLE
105
27
330
A
100
AcDbSymbolTableRecord
100
AcDbDimStyleTableRecord
  2
Standard
 70
     0
 41
3.0
 42
0.05
 73
     0
 74
     0
140
15.0
147
1.0
289
     2
340
11
  0
DIMSTYLE
105
3B4F3
102
{ACAD_REACTORS
330
76B10
330
76B14
330
76B17
330
76B32
330
76B38
330
76BF2
330
76EFB
330
76EFC
330
76EFD
102
}
330
A
100
AcDbSymbolTableRecord
100
AcDbDimStyleTableRecord
  2
STANDARD-2
 70
     0
 41
5.0
 42
0.5
 43
15.0
 44
1.5
 73
     0
 74
     0
 77
     1
 78
     8
140
10.0
141
0.0
145
10.0
147
2.0
172
     1
176
     4
177
     4
178
     3
271
     1
272
     1
340
11
341
72EC7
342
72EC7
  0
DIMSTYLE
105
52821
102
{ACAD_REACTORS
330
76F0B
330
76F0C
330
76F0D
102
}
330
A
100
AcDbSymbolTableRecord
100
AcDbDimStyleTableRecord
  2
STANDARD2
 70
     0
 41
5.0
 42
0.5
 43
10.0
 44
1.5
 74
     0
 77
     1
 78
     8
140
4.0
141
0.5
145
7.0
147
2.0
172
     1
176
     4
177
     4
178
     3
271
     1
272
     1
289
     2
340
11
341
72EC7
342
72EC7
343
72EC7
344
72EC7
  0
ENDTAB
  0
TABLE
  2
BLOCK_RECORD
  5
1
330
0
100
AcDbSymbolTable
 70
    24
  0
BLOCK_RECORD
  5
1F
102
{ACAD_XDICTIONARY
360
733B4
102
}
330
1
100
AcDbSymbolTableRecord
100
AcDbBlockTableRecord
  2
*Model_Space
340
22
  0
BLOCK_RECORD
  5
73
102
{ACAD_XDICTIONARY
360
733B6
102
}
330
1
100
AcDbSymbolTableRecord
100
AcDbBlockTableRecord
  2
*Paper_Space
340
1D
  0
BLOCK_RECORD
  5
72EC7
330
1
100
AcDbSymbolTableRecord
100
AcDbBlockTableRecord
  2
_Open
340
0
102
{BLKREFS
331
76D44
331
76D45
331
76D61
331
76D62
331
76D86
331
76D87
331
76DAF
331
76DB0
331
76DB8
331
76DB9
331
76DDD
331
76DDE
331
76E11
331
76E12
331
76E36
331
76E37
331
76E1D
331
76E1E
331
76E42
331
76E43
331
76E29
331
76E2A
331
76E4E
331
76E57
331
76E62
331
76E63
331
76F72
331
76F73
331
76F7C
331
76F7D
331
76FB8
331
76FB9
331
76FC1
331
76FC2
331
76FCA
331
76FCB
331
76FE1
331
76FE2
331
76FEC
331
76FF2
102
}
  0
BLOCK_RECORD
  5
76C9F
330
1
100
AcDbSymbolTableRecord
100
AcDbBlockTableRecord
  2
*D1
340
0
  0
BLOCK_RECORD
  5
76CAB
330
1
100
AcDbSymbolTableRecord
100
AcDbBlockTableRecord
  2
*D2
340
0
  0
BLOCK_RECORD
  5
76CB7
330
1
100
AcDbSymbolTableRecord
100
AcDbBlockTableRecord
  2
*D3
340
0
  0
BLOCK_RECORD
  5
76CDD
330
1
100
AcDbSymbolTableRecord
100
AcDbBlockTableRecord
  2
*D4
340
0
  0
BLOCK_RECORD
  5
76CE9
330
1
100
AcDbSymbolTableRecord
100
AcDbBlockTableRecord
  2
*D5
340
0
  0
BLOCK_RECORD
  5
76D02
330
1
100
AcDbSymbolTableRecord
100
AcDbBlockTableRecord
  2
*D6
340
0
  0
BLOCK_RECORD
  5
76E0C
330
1
100
AcDbSymbolTableRecord
100
AcDbBlockTableRecord
  2
*D7
340
0
  0
BLOCK_RECORD
  5
76E18
330
1
100
AcDbSymbolTableRecord
100
AcDbBlockTableRecord
  2
*D8
340
0
  0
BLOCK_RECORD
  5
76E24
330
1
100
AcDbSymbolTableRecord
100
AcDbBlockTableRecord
  2
*D9
340
0
  0
BLOCK_RECORD
  5
76E30
330
1
100
AcDbSymbolTableRecord
100
AcDbBlockTableRecord
  2
*D10
340
0
  0
BLOCK_RECORD
  5
76E3D
330
1
100
AcDbSymbolTableRecord
100
AcDbBlockTableRecord
  2
*D11
340
0
  0
BLOCK_RECORD
  5
76E49
330
1
100
AcDbSymbolTableRecord
100
AcDbBlockTableRecord
  2
*D12
340
0
  0
BLOCK_RECORD
  5
76E52
330
1
100
AcDbSymbolTableRecord
100
AcDbBlockTableRecord
  2
*D13
340
0
  0
BLOCK_RECORD
  5
76E5B
330
1
100
AcDbSymbolTableRecord
100
AcDbBlockTableRecord
  2
*D14
340
0
  0
BLOCK_RECORD
  5
76F12
330
1
100
AcDbSymbolTableRecord
100
AcDbBlockTableRecord
  2
*D16
340
0
  0
BLOCK_RECORD
  5
76F1E
330
1
100
AcDbSymbolTableRecord
100
AcDbBlockTableRecord
  2
*D17
340
0
  0
BLOCK_RECORD
  5
76F2B
330
1
100
AcDbSymbolTableRecord
100
AcDbBlockTableRecord
  2
*D18
340
0
  0
BLOCK_RECORD
  5
76F37
330
1
100
AcDbSymbolTableRecord
100
AcDbBlockTableRecord
  2
*D19
340
0
  0
BLOCK_RECORD
  5
76F43
330
1
100
AcDbSymbolTableRecord
100
AcDbBlockTableRecord
  2
*D20
340
0
  0
BLOCK_RECORD
  5
76F4F
330
1
100
AcDbSymbolTableRecord
100
AcDbBlockTableRecord
  2
*D21
340
0
  0
BLOCK_RECORD
  5
76F58
330
1
100
AcDbSymbolTableRecord
100
AcDbBlockTableRecord
  2
*D22
340
0
  0
BLOCK_RECORD
  5
76F61
330
1
100
AcDbSymbolTableRecord
100
AcDbBlockTableRecord
  2
*D23
340
0
  0
ENDTAB
  0
ENDSEC
  0
SECTION
  2
BLOCKS
  0
BLOCK
  5
20
330
1F
100
AcDbEntity
  8
0
100
AcDbBlockBegin
  2
*Model_Space
 70
     0
 10
0.0
 20
0.0
 30
0.0
  3
*Model_Space
  1

  0
ENDBLK
  5
21
330
1F
100
AcDbEntity
  8
0
100
AcDbBlockEnd
  0
BLOCK
  5
75
330
73
100
AcDbEntity
 67
     1
  8
0
100
AcDbBlockBegin
  2
*Paper_Space
 70
     0
 10
0.0
 20
0.0
 30
0.0
  3
*Paper_Space
  1

  0
ENDBLK
  5
76
330
73
100
AcDbEntity
 67
     1
  8
0
100
AcDbBlockEnd
  0
BLOCK
  5
72EC8
330
72EC7
100
AcDbEntity
  8
0
100
AcDbBlockBegin
  2
_Open
 70
     0
 10
0.0
 20
0.0
 30
0.0
  3
_Open
  1

  0
LINE
  5
3B4AF
330
72EC7
100
AcDbEntity
  8
0
  6
ByBlock
 62
     0
 48
10.0
100
AcDbLine
 10
-1.0
 20
0.1666666666666666
 30
0.0
 11
0.0
 21
0.0
 31
0.0
  0
LINE
  5
3B4B0
330
72EC7
100
AcDbEntity
  8
0
  6
ByBlock
 62
     0
 48
10.0
100
AcDbLine
 10
0.0
 20
0.0
 30
0.0
 11
-1.0
 21
-0.1666666666666666
 31
0.0
  0
LINE
  5
3B4B1
330
72EC7
100
AcDbEntity
  8
0
  6
ByBlock
 62
     0
 48
10.0
100
AcDbLine
 10
0.0
 20
0.0
 30
0.0
 11
-1.0
 21
0.0
 31
0.0
  0
ENDBLK
  5
72EC9
330
72EC7
100
AcDbEntity
  8
0
100
AcDbBlockEnd
  0
BLOCK
  5
76CA0
330
76C9F
100
AcDbEntity
  8
0
100
AcDbBlockBegin
  2
*D1
 70
     1
 10
0.0
 20
0.0
 30
0.0
  3
*D1
  1

  0
LINE
  5
76DB5
330
76C9F
100
AcDbEntity
  8
寸法
 62
     4
370
    -2
100
AcDbLine
 10
3087.793972759508
 20
-270.0788189901548
 30
0.0
 11
3087.793972759508
 21
-248.5949947227045
 31
0.0
  0
LINE
  5
76DB6
330
76C9F
100
AcDbEntity
  8
寸法
 62
     4
370
    -2
100
AcDbLine
 10
3209.793972759507
 20
-270.0788189901547
 30
0.0
 11
3209.793972759507
 21
-248.5949947227045
 31
0.0
  0
LINE
  5
76DB7
330
76C9F
100
AcDbEntity
  8
寸法
 62
     4
370
    -2
100
AcDbLine
 10
3092.793972759507
 20
-250.0949947227045
 30
0.0
 11
3204.793972759507
 21
-250.0949947227045
 31
0.0
  0
INSERT
  5
76DB8
330
76C9F
100
AcDbEntity
  8
寸法
 62
     4
370
    -2
100
AcDbBlockReference
  2
_Open
 10
3087.793972759508
 20
-250.0949947227045
 30
0.0
 41
5.0
 42
5.0
 43
5.0
 50
180.0
  0
INSERT
  5
76DB9
330
76C9F
100
AcDbEntity
  8
寸法
 62
     4
370
    -2
100
AcDbBlockReference
  2
_Open
 10
3209.793972759507
 20
-250.0949947227045
 30
0.0
 41
5.0
 42
5.0
 43
5.0
  0
MTEXT
  5
76DBA
330
76C9F
100
AcDbEntity
  8
寸法
 62
     3
100
AcDbMText
 10
3148.793972759507
 20
-243.0949947227045
 30
0.0
 40
10.0
 41
0.0
 71
     5
 72
     1
  1
\A1;122
 73
     1
 44
1.0
1001
ACAD
1000
MTEXTBEGIN
1070
    73
1070
     1
1070
    44
1040
1.0
1070
    74
1070
     0
1000
MTEXTEND
  0
POINT
  5
76DBB
330
76C9F
100
AcDbEntity
  8
Defpoints
 62
     0
100
AcDbPoint
 10
3087.793972759508
 20
-270.5788189901548
 30
0.0
  0
POINT
  5
76DBC
330
76C9F
100
AcDbEntity
  8
Defpoints
 62
     0
100
AcDbPoint
 10
3209.793972759507
 20
-270.5788189901547
 30
0.0
  0
POINT
  5
76DBD
330
76C9F
100
AcDbEntity
  8
Defpoints
 62
     0
100
AcDbPoint
 10
3209.793972759507
 20
-250.0949947227045
 30
0.0
  0
ENDBLK
  5
76CA1
330
76C9F
100
AcDbEntity
  8
0
100
AcDbBlockEnd
  0
BLOCK
  5
76CAC
330
76CAB
100
AcDbEntity
  8
0
100
AcDbBlockBegin
  2
*D2
 70
     1
 10
0.0
 20
0.0
 30
0.0
  3
*D2
  1

  0
LINE
  5
76DAC
330
76CAB
100
AcDbEntity
  8
寸法
 62
     4
370
    -2
100
AcDbLine
 10
3092.793972759507
 20
-105.0812667222127
 30
0.0
 11
3092.793972759507
 21
-81.01993282527757
 31
0.0
  0
LINE
  5
76DAD
330
76CAB
100
AcDbEntity
  8
寸法
 62
     4
370
    -2
100
AcDbLine
 10
3204.793972759507
 20
-105.0812667222128
 30
0.0
 11
3204.793972759507
 21
-81.01993282527757
 31
0.0
  0
LINE
  5
76DAE
330
76CAB
100
AcDbEntity
  8
寸法
 62
     4
370
    -2
100
AcDbLine
 10
3097.793972759507
 20
-82.51993282527758
 30
0.0
 11
3199.793972759507
 21
-82.51993282527758
 31
0.0
  0
INSERT
  5
76DAF
330
76CAB
100
AcDbEntity
  8
寸法
 62
     4
370
    -2
100
AcDbBlockReference
  2
_Open
 10
3092.793972759507
 20
-82.51993282527758
 30
0.0
 41
5.0
 42
5.0
 43
5.0
 50
180.0
  0
INSERT
  5
76DB0
330
76CAB
100
AcDbEntity
  8
寸法
 62
     4
370
    -2
100
AcDbBlockReference
  2
_Open
 10
3204.793972759507
 20
-82.51993282527758
 30
0.0
 41
5.0
 42
5.0
 43
5.0
  0
MTEXT
  5
76DB1
330
76CAB
100
AcDbEntity
  8
寸法
 62
     3
100
AcDbMText
 10
3148.793972759507
 20
-75.51993282527758
 30
0.0
 40
10.0
 41
0.0
 71
     5
 72
     1
  1
\A1;112
 73
     1
 44
1.0
1001
ACAD
1000
MTEXTBEGIN
1070
    73
1070
     1
1070
    44
1040
1.0
1070
    74
1070
     0
1000
MTEXTEND
  0
POINT
  5
76DB2
330
76CAB
100
AcDbEntity
  8
Defpoints
 62
     0
100
AcDbPoint
 10
3092.793972759507
 20
-105.5812667222127
 30
0.0
  0
POINT
  5
76DB3
330
76CAB
100
AcDbEntity
  8
Defpoints
 62
     0
100
AcDbPoint
 10
3204.793972759507
 20
-105.5812667222128
 30
0.0
  0
POINT
  5
76DB4
330
76CAB
100
AcDbEntity
  8
Defpoints
 62
     0
100
AcDbPoint
 10
3204.793972759507
 20
-82.51993282527758
 30
0.0
  0
ENDBLK
  5
76CAD
330
76CAB
100
AcDbEntity
  8
0
100
AcDbBlockEnd
  0
BLOCK
  5
76CB8
330
76CB7
100
AcDbEntity
  8
0
100
AcDbBlockBegin
  2
*D3
 70
     1
 10
0.0
 20
0.0
 30
0.0
  3
*D3
  1

  0
LINE
  5
76D41
330
76CB7
100
AcDbEntity
  8
寸法
 62
     4
370
    -2
100
AcDbLine
 10
3092.293972759507
 20
-105.5812667222127
 30
0.0
 11
3055.654904082456
 21
-105.5812667222127
 31
0.0
  0
LINE
  5
76D42
330
76CB7
100
AcDbEntity
  8
寸法
 62
     4
370
    -2
100
AcDbLine
 10
3087.293972759507
 20
-217.8812667222116
 30
0.0
 11
3055.654904082456
 21
-217.8812667222116
 31
0.0
  0
LINE
  5
76D43
330
76CB7
100
AcDbEntity
  8
寸法
 62
     4
370
    -2
100
AcDbLine
 10
3057.154904082456
 20
-110.5812667222127
 30
0.0
 11
3057.154904082456
 21
-212.8812667222116
 31
0.0
  0
INSERT
  5
76D44
330
76CB7
100
AcDbEntity
  8
寸法
 62
     4
370
    -2
100
AcDbBlockReference
  2
_Open
 10
3057.154904082456
 20
-105.5812667222127
 30
0.0
 41
5.0
 42
5.0
 43
5.0
 50
90.0
  0
INSERT
  5
76D45
330
76CB7
100
AcDbEntity
  8
寸法
 62
     4
370
    -2
100
AcDbBlockReference
  2
_Open
 10
3057.154904082456
 20
-217.8812667222116
 30
0.0
 41
5.0
 42
5.0
 43
5.0
 50
270.0
  0
MTEXT
  5
76D46
330
76CB7
100
AcDbEntity
  8
寸法
 62
     3
100
AcDbMText
 10
3050.154904082456
 20
-161.7312667222116
 30
0.0
 40
10.0
 41
0.0
 71
     5
 72
     1
  1
\A1;112.3
 11
0.0000000000000001
 21
1.0
 31
0.0
 73
     1
 44
1.0
1001
ACAD
1000
MTEXTBEGIN
1070
    73
1070
     1
1070
    44
1040
1.0
1070
    74
1070
     0
1000
MTEXTEND
  0
POINT
  5
76D47
330
76CB7
100
AcDbEntity
  8
Defpoints
 62
     0
100
AcDbPoint
 10
3092.793972759507
 20
-105.5812667222127
 30
0.0
  0
POINT
  5
76D48
330
76CB7
100
AcDbEntity
  8
Defpoints
 62
     0
100
AcDbPoint
 10
3087.793972759508
 20
-217.8812667222116
 30
0.0
  0
POINT
  5
76D49
330
76CB7
100
AcDbEntity
  8
Defpoints
 62
     0
100
AcDbPoint
 10
3057.154904082456
 20
-217.8812667222116
 30
0.0
  0
ENDBLK
  5
76CB9
330
76CB7
100
AcDbEntity
  8
0
100
AcDbBlockEnd
  0
BLOCK
  5
76CDE
330
76CDD
100
AcDbEntity
  8
0
100
AcDbBlockBegin
  2
*D4
 70
     1
 10
0.0
 20
0.0
 30
0.0
  3
*D4
  1

  0
LINE
  5
76D5E
330
76CDD
100
AcDbEntity
  8
寸法
 62
     4
370
    -2
100
AcDbLine
 10
3359.288596454638
 20
-270.5239518346092
 30
0.0
 11
3334.63856403781
 21
-267.8025629200984
 31
0.0
  0
LINE
  5
76D5F
330
76CDD
100
AcDbEntity
  8
寸法
 62
     4
370
    -2
100
AcDbLine
 10
3338.987738301869
 20
-454.4068246158082
 30
0.0
 11
3314.337705885041
 21
-451.6854357012972
 31
0.0
  0
LINE
  5
76D60
330
76CDD
100
AcDbEntity
  8
寸法
 62
     4
370
    -2
100
AcDbLine
 10
3335.580833915538
 20
-272.9369691640108
 30
0.0
 11
3316.377318873679
 21
-446.8802323906579
 31
0.0
  0
INSERT
  5
76D61
330
76CDD
100
AcDbEntity
  8
寸法
 62
     4
370
    -2
100
AcDbBlockReference
  2
_Open
 10
3336.129505470993
 20
-267.9671643867349
 30
0.0
 41
5.0
 42
5.0
 43
5.0
 50
83.70000000000022
  0
INSERT
  5
76D62
330
76CDD
100
AcDbEntity
  8
寸法
 62
     4
370
    -2
100
AcDbBlockReference
  2
_Open
 10
3315.828647318224
 20
-451.8500371679338
 30
0.0
 41
5.0
 42
5.0
 43
5.0
 50
263.7000000000002
  0
MTEXT
  5
76D63
330
76CDD
100
AcDbEntity
  8
寸法
 62
     3
100
AcDbMText
 10
3319.021349706421
 20
-359.1404605996971
 30
0.0
 40
10.0
 41
0.0
 71
     5
 72
     1
  1
\A1;185
 11
0.1097343110910421
 21
0.99396095545518
 31
0.0
 73
     1
 44
1.0
1001
ACAD
1000
MTEXTBEGIN
1070
    73
1070
     1
1070
    44
1040
1.0
1070
    74
1070
     0
1000
MTEXTEND
  0
POINT
  5
76D64
330
76CDD
100
AcDbEntity
  8
Defpoints
 62
     0
100
AcDbPoint
 10
3359.785576932365
 20
-270.5788189901548
 30
0.0
  0
POINT
  5
76D65
330
76CDD
100
AcDbEntity
  8
Defpoints
 62
     0
100
AcDbPoint
 10
3339.484718779596
 20
-454.4616917713536
 30
0.0
  0
POINT
  5
76D66
330
76CDD
100
AcDbEntity
  8
Defpoints
 62
     0
100
AcDbPoint
 10
3315.828647318224
 20
-451.8500371679338
 30
0.0
  0
ENDBLK
  5
76CDF
330
76CDD
100
AcDbEntity
  8
0
100
AcDbBlockEnd
  0
BLOCK
  5
76CEA
330
76CE9
100
AcDbEntity
  8
0
100
AcDbBlockBegin
  2
*D5
 70
     1
 10
0.0
 20
0.0
 30
0.0
  3
*D5
  1

  0
LINE
  5
76DDA
330
76CE9
100
AcDbEntity
  8
寸法
 62
     4
370
    -2
100
AcDbLine
 10
3092.293972759507
 20
-455.5788189901549
 30
0.0
 11
3056.533136850536
 21
-455.5788189901549
 31
0.0
  0
LINE
  5
76DDB
330
76CE9
100
AcDbEntity
  8
寸法
 62
     4
370
    -2
100
AcDbLine
 10
3087.293972759507
 20
-270.5788189901548
 30
0.0
 11
3056.533136850536
 21
-270.5788189901548
 31
0.0
  0
LINE
  5
76DDC
330
76CE9
100
AcDbEntity
  8
寸法
 62
     4
370
    -2
100
AcDbLine
 10
3058.033136850536
 20
-450.5788189901549
 30
0.0
 11
3058.033136850536
 21
-275.5788189901548
 31
0.0
  0
INSERT
  5
76DDD
330
76CE9
100
AcDbEntity
  8
寸法
 62
     4
370
    -2
100
AcDbBlockReference
  2
_Open
 10
3058.033136850536
 20
-455.5788189901549
 30
0.0
 41
5.0
 42
5.0
 43
5.0
 50
270.0
  0
INSERT
  5
76DDE
330
76CE9
100
AcDbEntity
  8
寸法
 62
     4
370
    -2
100
AcDbBlockReference
  2
_Open
 10
3058.033136850536
 20
-270.5788189901548
 30
0.0
 41
5.0
 42
5.0
 43
5.0
 50
90.0
  0
MTEXT
  5
76DDF
330
76CE9
100
AcDbEntity
  8
寸法
 62
     3
100
AcDbMText
 10
3051.033136850536
 20
-363.0788189901543
 30
0.0
 40
10.0
 41
0.0
 71
     5
 72
     1
  1
\A1;185
 11
0.0000000000000001
 21
1.0
 31
0.0
 73
     1
 44
1.0
1001
ACAD
1000
MTEXTBEGIN
1070
    73
1070
     1
1070
    44
1040
1.0
1070
    74
1070
     0
1000
MTEXTEND
  0
POINT
  5
76DE0
330
76CE9
100
AcDbEntity
  8
Defpoints
 62
     0
100
AcDbPoint
 10
3092.793972759507
 20
-455.5788189901549
 30
0.0
  0
POINT
  5
76DE1
330
76CE9
100
AcDbEntity
  8
Defpoints
 62
     0
100
AcDbPoint
 10
3087.793972759508
 20
-270.5788189901548
 30
0.0
  0
POINT
  5
76DE2
330
76CE9
100
AcDbEntity
  8
Defpoints
 62
     0
100
AcDbPoint
 10
3058.033136850536
 20
-270.5788189901548
 30
0.0
  0
ENDBLK
  5
76CEB
330
76CE9
100
AcDbEntity
  8
0
100
AcDbBlockEnd
  0
BLOCK
  5
76D03
330
76D02
100
AcDbEntity
  8
0
100
AcDbBlockBegin
  2
*D6
 70
     1
 10
0.0
 20
0.0
 30
0.0
  3
*D6
  1

  0
LINE
  5
76D83
330
76D02
100
AcDbEntity
  8
寸法
 62
     4
370
    -2
100
AcDbLine
 10
3359.785576932365
 20
-270.0788189901548
 30
0.0
 11
3359.785576932365
 21
-234.3181106673611
 31
0.0
  0
LINE
  5
76D84
330
76D02
100
AcDbEntity
  8
寸法
 62
     4
370
    -2
100
AcDbLine
 10
3451.785576932364
 20
-274.078818823073
 30
0.0
 11
3451.785576932364
 21
-234.3181106673611
 31
0.0
  0
LINE
  5
76D85
330
76D02
100
AcDbEntity
  8
寸法
 62
     4
370
    -2
100
AcDbLine
 10
3364.785576932365
 20
-235.8181106673611
 30
0.0
 11
3446.785576932364
 21
-235.8181106673611
 31
0.0
  0
INSERT
  5
76D86
330
76D02
100
AcDbEntity
  8
寸法
 62
     4
370
    -2
100
AcDbBlockReference
  2
_Open
 10
3359.785576932365
 20
-235.8181106673611
 30
0.0
 41
5.0
 42
5.0
 43
5.0
 50
180.0
  0
INSERT
  5
76D87
330
76D02
100
AcDbEntity
  8
寸法
 62
     4
370
    -2
100
AcDbBlockReference
  2
_Open
 10
3451.785576932364
 20
-235.8181106673611
 30
0.0
 41
5.0
 42
5.0
 43
5.0
  0
MTEXT
  5
76D88
330
76D02
100
AcDbEntity
  8
寸法
 62
     3
100
AcDbMText
 10
3405.785576932365
 20
-228.8181106673611
 30
0.0
 40
10.0
 41
0.0
 71
     5
 72
     1
  1
\A1;92
 73
     1
 44
1.0
1001
ACAD
1000
MTEXTBEGIN
1070
    73
1070
     1
1070
    44
1040
1.0
1070
    74
1070
     0
1000
MTEXTEND
  0
POINT
  5
76D89
330
76D02
100
AcDbEntity
  8
Defpoints
 62
     0
100
AcDbPoint
 10
3359.785576932365
 20
-270.5788189901548
 30
0.0
  0
POINT
  5
76D8A
330
76D02
100
AcDbEntity
  8
Defpoints
 62
     0
100
AcDbPoint
 10
3451.785576932364
 20
-274.578818823073
 30
0.0
  0
POINT
  5
76D8B
330
76D02
100
AcDbEntity
  8
Defpoints
 62
     0
100
AcDbPoint
 10
3451.785576932364
 20
-235.8181106673611
 30
0.0
  0
ENDBLK
  5
76D04
330
76D02
100
AcDbEntity
  8
0
100
AcDbBlockEnd
  0
BLOCK
  5
76E0D
330
76E0C
100
AcDbEntity
  8
0
100
AcDbBlockBegin
  2
*D7
 70
     1
 10
0.0
 20
0.0
 30
0.0
  3
*D7
  1

  0
LINE
  5
76E0E
330
76E0C
100
AcDbEntity
  8
寸法
 62
     4
370
    -2
100
AcDbLine
 10
3353.25781469231
 20
8.414109601574182
 30
0.0
 11
3353.25781469231
 21
-18.50231491779709
 31
0.0
  0
LINE
  5
76E0F
330
76E0C
100
AcDbEntity
  8
寸法
 62
     4
370
    -2
100
AcDbLine
 10
3465.257814692311
 20
8.414109601574068
 30
0.0
 11
3465.257814692311
 21
-18.50231491779709
 31
0.0
  0
LINE
  5
76E10
330
76E0C
100
AcDbEntity
  8
寸法
 62
     4
370
    -2
100
AcDbLine
 10
3358.25781469231
 20
-17.00231491779709
 30
0.0
 11
3460.25781469231
 21
-17.00231491779709
 31
0.0
  0
INSERT
  5
76E11
330
76E0C
100
AcDbEntity
  8
寸法
 62
     4
370
    -2
100
AcDbBlockReference
  2
_Open
 10
3353.25781469231
 20
-17.00231491779709
 30
0.0
 41
5.0
 42
5.0
 43
5.0
 50
180.0
  0
INSERT
  5
76E12
330
76E0C
100
AcDbEntity
  8
寸法
 62
     4
370
    -2
100
AcDbBlockReference
  2
_Open
 10
3465.257814692311
 20
-17.00231491779709
 30
0.0
 41
5.0
 42
5.0
 43
5.0
  0
MTEXT
  5
76E13
330
76E0C
100
AcDbEntity
  8
寸法
 62
     3
100
AcDbMText
 10
3409.25781469231
 20
-10.00231491779709
 30
0.0
 40
10.0
 41
0.0
 71
     5
 72
     1
  1
\A1;112
 73
     1
 44
1.0
1001
ACAD
1000
MTEXTBEGIN
1070
    73
1070
     1
1070
    44
1040
1.0
1070
    74
1070
     0
1000
MTEXTEND
  0
POINT
  5
76E14
330
76E0C
100
AcDbEntity
  8
Defpoints
 62
     0
100
AcDbPoint
 10
3353.25781469231
 20
8.914109601574182
 30
0.0
  0
POINT
  5
76E15
330
76E0C
100
AcDbEntity
  8
Defpoints
 62
     0
100
AcDbPoint
 10
3465.257814692311
 20
8.914109601574068
 30
0.0
  0
POINT
  5
76E16
330
76E0C
100
AcDbEntity
  8
Defpoints
 62
     0
100
AcDbPoint
 10
3465.257814692311
 20
-17.00231491779709
 30
0.0
  0
ENDBLK
  5
76E17
330
76E0C
100
AcDbEntity
  8
外形１
100
AcDbBlockEnd
  0
BLOCK
  5
76E19
330
76E18
100
AcDbEntity
  8
0
100
AcDbBlockBegin
  2
*D8
 70
     1
 10
0.0
 20
0.0
 30
0.0
  3
*D8
  1

  0
LINE
  5
76E1A
330
76E18
100
AcDbEntity
  8
寸法
 62
     4
370
    -2
100
AcDbLine
 10
3371.25781469231
 20
104.5909923615244
 30
0.0
 11
3371.25781469231
 21
144.4950543909126
 31
0.0
  0
LINE
  5
76E1B
330
76E18
100
AcDbEntity
  8
寸法
 62
     4
370
    -2
100
AcDbLine
 10
3447.25781469231
 20
104.5909923615244
 30
0.0
 11
3447.25781469231
 21
144.4950543909126
 31
0.0
  0
LINE
  5
76E1C
330
76E18
100
AcDbEntity
  8
寸法
 62
     4
370
    -2
100
AcDbLine
 10
3376.257814692309
 20
142.9950543909126
 30
0.0
 11
3442.25781469231
 21
142.9950543909126
 31
0.0
  0
INSERT
  5
76E1D
330
76E18
100
AcDbEntity
  8
寸法
 62
     4
370
    -2
100
AcDbBlockReference
  2
_Open
 10
3371.25781469231
 20
142.9950543909126
 30
0.0
 41
5.0
 42
5.0
 43
5.0
 50
180.0
  0
INSERT
  5
76E1E
330
76E18
100
AcDbEntity
  8
寸法
 62
     4
370
    -2
100
AcDbBlockReference
  2
_Open
 10
3447.25781469231
 20
142.9950543909126
 30
0.0
 41
5.0
 42
5.0
 43
5.0
  0
MTEXT
  5
76E1F
330
76E18
100
AcDbEntity
  8
寸法
 62
     3
100
AcDbMText
 10
3409.25781469231
 20
149.9950543909126
 30
0.0
 40
10.0
 41
0.0
 71
     5
 72
     1
  1
\A1;76
 73
     1
 44
1.0
1001
ACAD
1000
MTEXTBEGIN
1070
    73
1070
     1
1070
    44
1040
1.0
1070
    74
1070
     0
1000
MTEXTEND
  0
POINT
  5
76E20
330
76E18
100
AcDbEntity
  8
Defpoints
 62
     0
100
AcDbPoint
 10
3371.25781469231
 20
104.0909923615244
 30
0.0
  0
POINT
  5
76E21
330
76E18
100
AcDbEntity
  8
Defpoints
 62
     0
100
AcDbPoint
 10
3447.25781469231
 20
104.0909923615244
 30
0.0
  0
POINT
  5
76E22
330
76E18
100
AcDbEntity
  8
Defpoints
 62
     0
100
AcDbPoint
 10
3447.25781469231
 20
142.9950543909126
 30
0.0
  0
ENDBLK
  5
76E23
330
76E18
100
AcDbEntity
  8
外形１
100
AcDbBlockEnd
  0
BLOCK
  5
76E25
330
76E24
100
AcDbEntity
  8
0
100
AcDbBlockBegin
  2
*D9
 70
     1
 10
0.0
 20
0.0
 30
0.0
  3
*D9
  1

  0
LINE
  5
76E26
330
76E24
100
AcDbEntity
  8
寸法
 62
     4
370
    -2
100
AcDbLine
 10
3460.882814692311
 20
119.9141097686574
 30
0.0
 11
3494.0101485259
 21
119.9141097686574
 31
0.0
  0
LINE
  5
76E27
330
76E24
100
AcDbEntity
  8
寸法
 62
     4
370
    -2
100
AcDbLine
 10
3422.88281469231
 20
49.91410976865758
 30
0.0
 11
3494.0101485259
 21
49.91410976865756
 31
0.0
  0
LINE
  5
76E28
330
76E24
100
AcDbEntity
  8
寸法
 62
     4
370
    -2
100
AcDbLine
 10
3492.5101485259
 20
114.9141097686574
 30
0.0
 11
3492.5101485259
 21
54.91410976865756
 31
0.0
  0
INSERT
  5
76E29
330
76E24
100
AcDbEntity
  8
寸法
 62
     4
370
    -2
100
AcDbBlockReference
  2
_Open
 10
3492.5101485259
 20
119.9141097686574
 30
0.0
 41
5.0
 42
5.0
 43
5.0
 50
90.0
  0
INSERT
  5
76E2A
330
76E24
100
AcDbEntity
  8
寸法
 62
     4
370
    -2
100
AcDbBlockReference
  2
_Open
 10
3492.5101485259
 20
49.91410976865756
 30
0.0
 41
5.0
 42
5.0
 43
5.0
 50
270.0
  0
MTEXT
  5
76E2B
330
76E24
100
AcDbEntity
  8
寸法
 62
     3
100
AcDbMText
 10
3485.510148525901
 20
84.91410976865806
 30
0.0
 40
10.0
 41
0.0
 71
     5
 72
     1
  1
\A1;70
 11
0.0000000000000001
 21
1.0
 31
0.0
 73
     1
 44
1.0
1001
ACAD
1000
MTEXTBEGIN
1070
    73
1070
     1
1070
    44
1040
1.0
1070
    74
1070
     0
1000
MTEXTEND
  0
POINT
  5
76E2C
330
76E24
100
AcDbEntity
  8
Defpoints
 62
     0
100
AcDbPoint
 10
3460.382814692311
 20
119.9141097686574
 30
0.0
  0
POINT
  5
76E2D
330
76E24
100
AcDbEntity
  8
Defpoints
 62
     0
100
AcDbPoint
 10
3422.382814692311
 20
49.91410976865758
 30
0.0
  0
POINT
  5
76E2E
330
76E24
100
AcDbEntity
  8
Defpoints
 62
     0
100
AcDbPoint
 10
3492.5101485259
 20
49.91410976865756
 30
0.0
  0
ENDBLK
  5
76E2F
330
76E24
100
AcDbEntity
  8
外形１
100
AcDbBlockEnd
  0
BLOCK
  5
76E31
330
76E30
100
AcDbEntity
  8
0
100
AcDbBlockBegin
  2
*D10
 70
     1
 10
0.0
 20
0.0
 30
0.0
  3
*D10
  1

  0
LINE
  5
76E32
330
76E30
100
AcDbEntity
  8
寸法
 62
     4
370
    -2
100
AcDbLine
 10
3459.757814692311
 20
173.9139938413007
 30
0.0
 11
3483.026370408914
 21
173.9139938413007
 31
0.0
  0
LINE
  5
76E33
330
76E30
100
AcDbEntity
  8
寸法
 62
     4
370
    -2
100
AcDbLine
 10
3462.257814692311
 20
189.9141097686559
 30
0.0
 11
3483.026370408914
 21
189.9141097686559
 31
0.0
  0
LINE
  5
76E34
330
76E30
100
AcDbEntity
  8
寸法
 62
     4
370
    -2
100
AcDbLine
 10
3481.526370408914
 20
178.9139938413007
 30
0.0
 11
3481.526370408914
 21
184.9141097686559
 31
0.0
  0
LINE
  5
76E35
330
76E30
100
AcDbEntity
  8
寸法
 62
     4
370
    -2
100
AcDbLine
 10
3481.526370408914
 20
189.9141097686559
 30
0.0
 11
3481.526370408914
 21
212.2474431019892
 31
0.0
  0
INSERT
  5
76E36
330
76E30
100
AcDbEntity
  8
寸法
 62
     4
370
    -2
100
AcDbBlockReference
  2
_Open
 10
3481.526370408914
 20
173.9139938413007
 30
0.0
 41
5.0
 42
5.0
 43
5.0
 50
270.0
  0
INSERT
  5
76E37
330
76E30
100
AcDbEntity
  8
寸法
 62
     4
370
    -2
100
AcDbBlockReference
  2
_Open
 10
3481.526370408914
 20
189.9141097686559
 30
0.0
 41
5.0
 42
5.0
 43
5.0
 50
90.0
  0
MTEXT
  5
76E38
330
76E30
100
AcDbEntity
  8
寸法
 62
     3
100
AcDbMText
 10
3474.526370408914
 20
203.5807764353231
 30
0.0
 40
10.0
 41
0.0
 71
     5
 72
     1
  1
\A1;16
 11
0.0000000000000001
 21
1.0
 31
0.0
 73
     1
 44
1.0
1001
ACAD
1000
MTEXTBEGIN
1070
    73
1070
     1
1070
    44
1040
1.0
1070
    74
1070
     0
1000
MTEXTEND
  0
POINT
  5
76E39
330
76E30
100
AcDbEntity
  8
Defpoints
 62
     0
100
AcDbPoint
 10
3459.25781469231
 20
173.9139938413007
 30
0.0
  0
POINT
  5
76E3A
330
76E30
100
AcDbEntity
  8
Defpoints
 62
     0
100
AcDbPoint
 10
3461.75781469231
 20
189.9141097686559
 30
0.0
  0
POINT
  5
76E3B
330
76E30
100
AcDbEntity
  8
Defpoints
 62
     0
100
AcDbPoint
 10
3481.526370408914
 20
189.9141097686559
 30
0.0
  0
ENDBLK
  5
76E3C
330
76E30
100
AcDbEntity
  8
外形１
100
AcDbBlockEnd
  0
BLOCK
  5
76E3E
330
76E3D
100
AcDbEntity
  8
0
100
AcDbBlockBegin
  2
*D11
 70
     1
 10
0.0
 20
0.0
 30
0.0
  3
*D11
  1

  0
LINE
  5
76E3F
330
76E3D
100
AcDbEntity
  8
寸法
 62
     4
370
    -2
100
AcDbLine
 10
3462.257814692311
 20
189.9141097686559
 30
0.0
 11
3494.0101485259
 21
189.9141097686559
 31
0.0
  0
LINE
  5
76E40
330
76E3D
100
AcDbEntity
  8
寸法
 62
     4
370
    -2
100
AcDbLine
 10
3460.882814692311
 20
119.9141097686559
 30
0.0
 11
3494.0101485259
 21
119.9141097686558
 31
0.0
  0
LINE
  5
76E41
330
76E3D
100
AcDbEntity
  8
寸法
 62
     4
370
    -2
100
AcDbLine
 10
3492.5101485259
 20
184.9141097686559
 30
0.0
 11
3492.5101485259
 21
124.9141097686558
 31
0.0
  0
INSERT
  5
76E42
330
76E3D
100
AcDbEntity
  8
寸法
 62
     4
370
    -2
100
AcDbBlockReference
  2
_Open
 10
3492.5101485259
 20
189.9141097686559
 30
0.0
 41
5.0
 42
5.0
 43
5.0
 50
90.0
  0
INSERT
  5
76E43
330
76E3D
100
AcDbEntity
  8
寸法
 62
     4
370
    -2
100
AcDbBlockReference
  2
_Open
 10
3492.5101485259
 20
119.9141097686558
 30
0.0
 41
5.0
 42
5.0
 43
5.0
 50
270.0
  0
MTEXT
  5
76E44
330
76E3D
100
AcDbEntity
  8
寸法
 62
     3
100
AcDbMText
 10
3485.510148525901
 20
154.9141097686564
 30
0.0
 40
10.0
 41
0.0
 71
     5
 72
     1
  1
\A1;70
 11
0.0000000000000001
 21
1.0
 31
0.0
 73
     1
 44
1.0
1001
ACAD
1000
MTEXTBEGIN
1070
    73
1070
     1
1070
    44
1040
1.0
1070
    74
1070
     0
1000
MTEXTEND
  0
POINT
  5
76E45
330
76E3D
100
AcDbEntity
  8
Defpoints
 62
     0
100
AcDbPoint
 10
3461.75781469231
 20
189.9141097686559
 30
0.0
  0
POINT
  5
76E46
330
76E3D
100
AcDbEntity
  8
Defpoints
 62
     0
100
AcDbPoint
 10
3460.382814692311
 20
119.9141097686559
 30
0.0
  0
POINT
  5
76E47
330
76E3D
100
AcDbEntity
  8
Defpoints
 62
     0
100
AcDbPoint
 10
3492.5101485259
 20
119.9141097686558
 30
0.0
  0
ENDBLK
  5
76E48
330
76E3D
100
AcDbEntity
  8
外形１
100
AcDbBlockEnd
  0
BLOCK
  5
76E4A
330
76E49
100
AcDbEntity
  8
0
100
AcDbBlockBegin
  2
*D12
 70
     1
 10
0.0
 20
0.0
 30
0.0
  3
*D12
  1

  0
LINE
  5
76E4B
330
76E49
100
AcDbEntity
  8
KAKURESEN
 62
     4
370
    -2
100
AcDbLine
 10
3326.600984115518
 20
106.9519539743546
 30
0.0
 11
3364.055100083149
 21
117.823439479253
 31
0.0
  0
MTEXT
  5
76E4C
330
76E49
100
AcDbEntity
  8
KAKURESEN
 62
     3
100
AcDbMText
 10
3340.975844959505
 20
118.4133402655518
 30
0.0
 40
10.0
 41
0.0
 71
     5
 72
     1
  1
\A1;R2.5
 11
0.9603619478879862
 21
0.2787560385871359
 31
0.0
 73
     1
 44
1.0
1001
ACAD
1000
MTEXTBEGIN
1070
    73
1070
     1
1070
    44
1040
1.0
1070
    74
1070
     0
1000
MTEXTEND
  0
LINE
  5
76E4D
330
76E49
100
AcDbEntity
  8
KAKURESEN
 62
     4
370
    -2
100
AcDbLine
 10
3371.25781469231
 20
119.9141097686565
 30
0.0
 11
3368.85690982259
 21
119.2172196721886
 31
0.0
  0
INSERT
  5
76E4E
330
76E49
100
AcDbEntity
  8
KAKURESEN
 62
     4
370
    -2
100
AcDbBlockReference
  2
_Open
 10
3368.85690982259
 20
119.2172196721886
 30
0.0
 41
5.0
 42
5.0
 43
5.0
 50
16.18597523407817
  0
POINT
  5
76E4F
330
76E49
100
AcDbEntity
  8
Defpoints
 62
     0
100
AcDbPoint
 10
3368.85690982259
 20
119.2172196721886
 30
0.0
  0
POINT
  5
76E50
330
76E49
100
AcDbEntity
  8
Defpoints
 62
     0
100
AcDbPoint
 10
3371.25781469231
 20
119.9141097686565
 30
0.0
  0
ENDBLK
  5
76E51
330
76E49
100
AcDbEntity
  8
0
100
AcDbBlockEnd
  0
BLOCK
  5
76E53
330
76E52
100
AcDbEntity
  8
0
100
AcDbBlockBegin
  2
*D13
 70
     1
 10
0.0
 20
0.0
 30
0.0
  3
*D13
  1

  0
LINE
  5
76E54
330
76E52
100
AcDbEntity
  8
KAKURESEN
 62
     4
370
    -2
100
AcDbLine
 10
3329.630827340597
 20
80.53648494436471
 30
0.0
 11
3363.291825305979
 21
104.292231693053
 31
0.0
  0
MTEXT
  5
76E55
330
76E52
100
AcDbEntity
  8
KAKURESEN
 62
     3
100
AcDbMText
 10
3339.484024575304
 20
96.05790576379854
 30
0.0
 40
10.0
 41
0.0
 71
     5
 72
     1
  1
\A1;R4.8
 11
0.8170245524439627
 21
0.5766028795486046
 31
0.0
 73
     1
 44
1.0
1001
ACAD
1000
MTEXTBEGIN
1070
    73
1070
     1
1070
    44
1040
1.0
1070
    74
1070
     0
1000
MTEXTEND
  0
LINE
  5
76E56
330
76E52
100
AcDbEntity
  8
KAKURESEN
 62
     4
370
    -2
100
AcDbLine
 10
3371.257814692312
 20
109.9141097686547
 30
0.0
 11
3367.376948068198
 21
107.175246090796
 31
0.0
  0
INSERT
  5
76E57
330
76E52
100
AcDbEntity
  8
KAKURESEN
 62
     4
370
    -2
100
AcDbBlockReference
  2
_Open
 10
3367.376948068198
 20
107.175246090796
 30
0.0
 41
5.0
 42
5.0
 43
5.0
 50
35.21196027952332
  0
POINT
  5
76E58
330
76E52
100
AcDbEntity
  8
Defpoints
 62
     0
100
AcDbPoint
 10
3367.376948068198
 20
107.175246090796
 30
0.0
  0
POINT
  5
76E59
330
76E52
100
AcDbEntity
  8
Defpoints
 62
     0
100
AcDbPoint
 10
3371.257814692312
 20
109.9141097686547
 30
0.0
  0
ENDBLK
  5
76E5A
330
76E52
100
AcDbEntity
  8
0
100
AcDbBlockEnd
  0
BLOCK
  5
76E5C
330
76E5B
100
AcDbEntity
  8
0
100
AcDbBlockBegin
  2
*D14
 70
     1
 10
0.0
 20
0.0
 30
0.0
  3
*D14
  1

  0
LINE
  5
76E5D
330
76E5B
100
AcDbEntity
  8
KAKURESEN
 62
     4
370
    -2
100
AcDbLine
 10
3371.75781469231
 20
119.9141097686569
 30
0.0
 11
3385.847139742957
 21
119.9141097686569
 31
0.0
  0
LINE
  5
76E5E
330
76E5B
100
AcDbEntity
  8
KAKURESEN
 62
     4
370
    -2
100
AcDbLine
 10
3371.757814692312
 20
109.9141097686547
 30
0.0
 11
3385.847139742957
 21
109.9141097686547
 31
0.0
  0
LINE
  5
76E5F
330
76E5B
100
AcDbEntity
  8
KAKURESEN
 62
     4
370
    -2
100
AcDbLine
 10
3384.347139742958
 20
124.9141097686569
 30
0.0
 11
3384.347139742958
 21
129.9141097686569
 31
0.0
  0
LINE
  5
76E60
330
76E5B
100
AcDbEntity
  8
KAKURESEN
 62
     4
370
    -2
100
AcDbLine
 10
3384.347139742958
 20
104.9141097686547
 30
0.0
 11
3384.347139742958
 21
84.24744310198805
 31
0.0
  0
LINE
  5
76E61
330
76E5B
100
AcDbEntity
  8
KAKURESEN
 62
     4
370
    -2
100
AcDbLine
 10
3384.347139742958
 20
119.9141097686569
 30
0.0
 11
3384.347139742958
 21
109.9141097686547
 31
0.0
  0
INSERT
  5
76E62
330
76E5B
100
AcDbEntity
  8
KAKURESEN
 62
     4
370
    -2
100
AcDbBlockReference
  2
_Open
 10
3384.347139742958
 20
119.9141097686569
 30
0.0
 41
5.0
 42
5.0
 43
5.0
 50
270.0
  0
INSERT
  5
76E63
330
76E5B
100
AcDbEntity
  8
KAKURESEN
 62
     4
370
    -2
100
AcDbBlockReference
  2
_Open
 10
3384.347139742958
 20
109.9141097686547
 30
0.0
 41
5.0
 42
5.0
 43
5.0
 50
90.0
  0
MTEXT
  5
76E64
330
76E5B
100
AcDbEntity
  8
KAKURESEN
 62
     3
100
AcDbMText
 10
3377.347139742957
 20
92.08077643532194
 30
0.0
 40
10.0
 41
0.0
 71
     5
 72
     1
  1
\A1;10
 11
0.0000000000000001
 21
1.0
 31
0.0
 73
     1
 44
1.0
1001
ACAD
1000
MTEXTBEGIN
1070
    73
1070
     1
1070
    44
1040
1.0
1070
    74
1070
     0
1000
MTEXTEND
  0
POINT
  5
76E65
330
76E5B
100
AcDbEntity
  8
Defpoints
 62
     0
100
AcDbPoint
 10
3371.25781469231
 20
119.9141097686569
 30
0.0
  0
POINT
  5
76E66
330
76E5B
100
AcDbEntity
  8
Defpoints
 62
     0
100
AcDbPoint
 10
3371.257814692312
 20
109.9141097686547
 30
0.0
  0
POINT
  5
76E67
330
76E5B
100
AcDbEntity
  8
Defpoints
 62
     0
100
AcDbPoint
 10
3384.347139742958
 20
109.9141097686547
 30
0.0
  0
ENDBLK
  5
76E68
330
76E5B
100
AcDbEntity
  8
0
100
AcDbBlockEnd
  0
BLOCK
  5
76F13
330
76F12
100
AcDbEntity
  8
0
100
AcDbBlockBegin
  2
*D16
 70
     1
 10
0.0
 20
0.0
 30
0.0
  3
*D16
  1

  0
LINE
  5
76F6F
330
76F12
100
AcDbEntity
  8
寸法
 62
     4
370
    -2
100
AcDbLine
 10
3940.396606406041
 20
-431.1105045621809
 30
0.0
 11
3940.396606406041
 21
-458.0269290815522
 31
0.0
  0
LINE
  5
76F70
330
76F12
100
AcDbEntity
  8
寸法
 62
     4
370
    -2
100
AcDbLine
 10
4052.39660640604
 20
-431.110504562181
 30
0.0
 11
4052.39660640604
 21
-458.0269290815522
 31
0.0
  0
LINE
  5
76F71
330
76F12
100
AcDbEntity
  8
寸法
 62
     4
370
    -2
100
AcDbLine
 10
3945.396606406041
 20
-456.5269290815522
 30
0.0
 11
4047.396606406041
 21
-456.5269290815522
 31
0.0
  0
INSERT
  5
76F72
330
76F12
100
AcDbEntity
  8
寸法
 62
     4
370
    -2
100
AcDbBlockReference
  2
_Open
 10
3940.396606406041
 20
-456.5269290815522
 30
0.0
 41
5.0
 42
5.0
 43
5.0
 50
180.0
  0
INSERT
  5
76F73
330
76F12
100
AcDbEntity
  8
寸法
 62
     4
370
    -2
100
AcDbBlockReference
  2
_Open
 10
4052.39660640604
 20
-456.5269290815522
 30
0.0
 41
5.0
 42
5.0
 43
5.0
  0
MTEXT
  5
76F74
330
76F12
100
AcDbEntity
  8
寸法
 62
     3
100
AcDbMText
 10
3996.396606406041
 20
-449.5269290815522
 30
0.0
 40
10.0
 41
0.0
 71
     5
 72
     1
  1
\A1;112
 73
     1
 44
1.0
1001
ACAD
1000
MTEXTBEGIN
1070
    73
1070
     1
1070
    44
1040
1.0
1070
    74
1070
     0
1000
MTEXTEND
  0
POINT
  5
76F75
330
76F12
100
AcDbEntity
  8
Defpoints
 62
     0
100
AcDbPoint
 10
3940.396606406041
 20
-430.6105045621809
 30
0.0
  0
POINT
  5
76F76
330
76F12
100
AcDbEntity
  8
Defpoints
 62
     0
100
AcDbPoint
 10
4052.39660640604
 20
-430.610504562181
 30
0.0
  0
POINT
  5
76F77
330
76F12
100
AcDbEntity
  8
Defpoints
 62
     0
100
AcDbPoint
 10
4052.39660640604
 20
-456.5269290815522
 30
0.0
  0
ENDBLK
  5
76F14
330
76F12
100
AcDbEntity
  8
0
100
AcDbBlockEnd
  0
BLOCK
  5
76F1F
330
76F1E
100
AcDbEntity
  8
0
100
AcDbBlockBegin
  2
*D17
 70
     1
 10
0.0
 20
0.0
 30
0.0
  3
*D17
  1

  0
LINE
  5
76F78
330
76F1E
100
AcDbEntity
  8
寸法
 62
     4
370
    -2
100
AcDbLine
 10
4046.896606406041
 20
-265.6106203224545
 30
0.0
 11
4070.165162122644
 21
-265.6106203224545
 31
0.0
  0
LINE
  5
76F79
330
76F1E
100
AcDbEntity
  8
寸法
 62
     4
370
    -2
100
AcDbLine
 10
4049.39660640604
 20
-249.6105043950993
 30
0.0
 11
4070.165162122644
 21
-249.6105043950993
 31
0.0
  0
LINE
  5
76F7A
330
76F1E
100
AcDbEntity
  8
寸法
 62
     4
370
    -2
100
AcDbLine
 10
4068.665162122644
 20
-260.6106203224545
 30
0.0
 11
4068.665162122644
 21
-254.6105043950992
 31
0.0
  0
LINE
  5
76F7B
330
76F1E
100
AcDbEntity
  8
寸法
 62
     4
370
    -2
100
AcDbLine
 10
4068.665162122644
 20
-249.6105043950993
 30
0.0
 11
4068.665162122644
 21
-227.2771710617659
 31
0.0
  0
INSERT
  5
76F7C
330
76F1E
100
AcDbEntity
  8
寸法
 62
     4
370
    -2
100
AcDbBlockReference
  2
_Open
 10
4068.665162122644
 20
-265.6106203224545
 30
0.0
 41
5.0
 42
5.0
 43
5.0
 50
270.0
  0
INSERT
  5
76F7D
330
76F1E
100
AcDbEntity
  8
寸法
 62
     4
370
    -2
100
AcDbBlockReference
  2
_Open
 10
4068.665162122644
 20
-249.6105043950993
 30
0.0
 41
5.0
 42
5.0
 43
5.0
 50
90.0
  0
MTEXT
  5
76F7E
330
76F1E
100
AcDbEntity
  8
寸法
 62
     3
100
AcDbMText
 10
4061.665162122644
 20
-235.9438377284319
 30
0.0
 40
10.0
 41
0.0
 71
     5
 72
     1
  1
\A1;16
 11
0.0000000000000001
 21
1.0
 31
0.0
 73
     1
 44
1.0
1001
ACAD
1000
MTEXTBEGIN
1070
    73
1070
     1
1070
    44
1040
1.0
1070
    74
1070
     0
1000
MTEXTEND
  0
POINT
  5
76F7F
330
76F1E
100
AcDbEntity
  8
Defpoints
 62
     0
100
AcDbPoint
 10
4046.39660640604
 20
-265.6106203224545
 30
0.0
  0
POINT
  5
76F80
330
76F1E
100
AcDbEntity
  8
Defpoints
 62
     0
100
AcDbPoint
 10
4048.896606406041
 20
-249.6105043950993
 30
0.0
  0
POINT
  5
76F81
330
76F1E
100
AcDbEntity
  8
Defpoints
 62
     0
100
AcDbPoint
 10
4068.665162122644
 20
-249.6105043950993
 30
0.0
  0
ENDBLK
  5
76F20
330
76F1E
100
AcDbEntity
  8
0
100
AcDbBlockEnd
  0
BLOCK
  5
76F2C
330
76F2B
100
AcDbEntity
  8
0
100
AcDbBlockBegin
  2
*D18
 70
     1
 10
0.0
 20
0.0
 30
0.0
  3
*D18
  1

  0
LINE
  5
76FB5
330
76F2B
100
AcDbEntity
  8
寸法
 62
     4
370
    -2
100
AcDbLine
 10
3110.793972759506
 20
-359.9019362302044
 30
0.0
 11
3110.793972759506
 21
-319.9978742008162
 31
0.0
  0
LINE
  5
76FB6
330
76F2B
100
AcDbEntity
  8
寸法
 62
     4
370
    -2
100
AcDbLine
 10
3186.793972759507
 20
-359.9019362302044
 30
0.0
 11
3186.793972759507
 21
-319.9978742008162
 31
0.0
  0
LINE
  5
76FB7
330
76F2B
100
AcDbEntity
  8
寸法
 62
     4
370
    -2
100
AcDbLine
 10
3115.793972759506
 20
-321.4978742008162
 30
0.0
 11
3181.793972759507
 21
-321.4978742008162
 31
0.0
  0
INSERT
  5
76FB8
330
76F2B
100
AcDbEntity
  8
寸法
 62
     4
370
    -2
100
AcDbBlockReference
  2
_Open
 10
3110.793972759506
 20
-321.4978742008162
 30
0.0
 41
5.0
 42
5.0
 43
5.0
 50
180.0
  0
INSERT
  5
76FB9
330
76F2B
100
AcDbEntity
  8
寸法
 62
     4
370
    -2
100
AcDbBlockReference
  2
_Open
 10
3186.793972759507
 20
-321.4978742008162
 30
0.0
 41
5.0
 42
5.0
 43
5.0
  0
MTEXT
  5
76FBA
330
76F2B
100
AcDbEntity
  8
寸法
 62
     3
100
AcDbMText
 10
3148.793972759506
 20
-314.4978742008162
 30
0.0
 40
10.0
 41
0.0
 71
     5
 72
     1
  1
\A1;76
 73
     1
 44
1.0
1001
ACAD
1000
MTEXTBEGIN
1070
    73
1070
     1
1070
    44
1040
1.0
1070
    74
1070
     0
1000
MTEXTEND
  0
POINT
  5
76FBB
330
76F2B
100
AcDbEntity
  8
Defpoints
 62
     0
100
AcDbPoint
 10
3110.793972759506
 20
-360.4019362302044
 30
0.0
  0
POINT
  5
76FBC
330
76F2B
100
AcDbEntity
  8
Defpoints
 62
     0
100
AcDbPoint
 10
3186.793972759507
 20
-360.4019362302044
 30
0.0
  0
POINT
  5
76FBD
330
76F2B
100
AcDbEntity
  8
Defpoints
 62
     0
100
AcDbPoint
 10
3186.793972759507
 20
-321.4978742008162
 30
0.0
  0
ENDBLK
  5
76F2D
330
76F2B
100
AcDbEntity
  8
0
100
AcDbBlockEnd
  0
BLOCK
  5
76F38
330
76F37
100
AcDbEntity
  8
0
100
AcDbBlockBegin
  2
*D19
 70
     1
 10
0.0
 20
0.0
 30
0.0
  3
*D19
  1

  0
LINE
  5
76FBE
330
76F37
100
AcDbEntity
  8
寸法
 62
     4
370
    -2
100
AcDbLine
 10
3201.793972759507
 20
-274.578818823073
 30
0.0
 11
3233.546306593097
 21
-274.578818823073
 31
0.0
  0
LINE
  5
76FBF
330
76F37
100
AcDbEntity
  8
寸法
 62
     4
370
    -2
100
AcDbLine
 10
3200.418972759508
 20
-344.578818823073
 30
0.0
 11
3233.546306593097
 21
-344.578818823073
 31
0.0
  0
LINE
  5
76FC0
330
76F37
100
AcDbEntity
  8
寸法
 62
     4
370
    -2
100
AcDbLine
 10
3232.046306593097
 20
-279.578818823073
 30
0.0
 11
3232.046306593097
 21
-339.5788188230731
 31
0.0
  0
INSERT
  5
76FC1
330
76F37
100
AcDbEntity
  8
寸法
 62
     4
370
    -2
100
AcDbBlockReference
  2
_Open
 10
3232.046306593097
 20
-274.578818823073
 30
0.0
 41
5.0
 42
5.0
 43
5.0
 50
90.0
  0
INSERT
  5
76FC2
330
76F37
100
AcDbEntity
  8
寸法
 62
     4
370
    -2
100
AcDbBlockReference
  2
_Open
 10
3232.046306593097
 20
-344.578818823073
 30
0.0
 41
5.0
 42
5.0
 43
5.0
 50
270.0
  0
MTEXT
  5
76FC3
330
76F37
100
AcDbEntity
  8
寸法
 62
     3
100
AcDbMText
 10
3225.046306593096
 20
-309.5788188230725
 30
0.0
 40
10.0
 41
0.0
 71
     5
 72
     1
  1
\A1;70
 11
0.0000000000000001
 21
1.0
 31
0.0
 73
     1
 44
1.0
1001
ACAD
1000
MTEXTBEGIN
1070
    73
1070
     1
1070
    44
1040
1.0
1070
    74
1070
     0
1000
MTEXTEND
  0
POINT
  5
76FC4
330
76F37
100
AcDbEntity
  8
Defpoints
 62
     0
100
AcDbPoint
 10
3201.293972759507
 20
-274.578818823073
 30
0.0
  0
POINT
  5
76FC5
330
76F37
100
AcDbEntity
  8
Defpoints
 62
     0
100
AcDbPoint
 10
3199.918972759508
 20
-344.578818823073
 30
0.0
  0
POINT
  5
76FC6
330
76F37
100
AcDbEntity
  8
Defpoints
 62
     0
100
AcDbPoint
 10
3232.046306593097
 20
-344.578818823073
 30
0.0
  0
ENDBLK
  5
76F39
330
76F37
100
AcDbEntity
  8
0
100
AcDbBlockEnd
  0
BLOCK
  5
76F44
330
76F43
100
AcDbEntity
  8
0
100
AcDbBlockBegin
  2
*D20
 70
     1
 10
0.0
 20
0.0
 30
0.0
  3
*D20
  1

  0
LINE
  5
76FC7
330
76F43
100
AcDbEntity
  8
寸法
 62
     4
370
    -2
100
AcDbLine
 10
3200.418972759508
 20
-344.5788188230715
 30
0.0
 11
3233.546306593097
 21
-344.5788188230715
 31
0.0
  0
LINE
  5
76FC8
330
76F43
100
AcDbEntity
  8
寸法
 62
     4
370
    -2
100
AcDbLine
 10
3162.418972759507
 20
-414.5788188230713
 30
0.0
 11
3233.546306593097
 21
-414.5788188230713
 31
0.0
  0
LINE
  5
76FC9
330
76F43
100
AcDbEntity
  8
寸法
 62
     4
370
    -2
100
AcDbLine
 10
3232.046306593097
 20
-349.5788188230715
 30
0.0
 11
3232.046306593097
 21
-409.5788188230713
 31
0.0
  0
INSERT
  5
76FCA
330
76F43
100
AcDbEntity
  8
寸法
 62
     4
370
    -2
100
AcDbBlockReference
  2
_Open
 10
3232.046306593097
 20
-344.5788188230715
 30
0.0
 41
5.0
 42
5.0
 43
5.0
 50
90.0
  0
INSERT
  5
76FCB
330
76F43
100
AcDbEntity
  8
寸法
 62
     4
370
    -2
100
AcDbBlockReference
  2
_Open
 10
3232.046306593097
 20
-414.5788188230713
 30
0.0
 41
5.0
 42
5.0
 43
5.0
 50
270.0
  0
MTEXT
  5
76FCC
330
76F43
100
AcDbEntity
  8
寸法
 62
     3
100
AcDbMText
 10
3225.046306593096
 20
-379.5788188230708
 30
0.0
 40
10.0
 41
0.0
 71
     5
 72
     1
  1
\A1;70
 11
0.0000000000000001
 21
1.0
 31
0.0
 73
     1
 44
1.0
1001
ACAD
1000
MTEXTBEGIN
1070
    73
1070
     1
1070
    44
1040
1.0
1070
    74
1070
     0
1000
MTEXTEND
  0
POINT
  5
76FCD
330
76F43
100
AcDbEntity
  8
Defpoints
 62
     0
100
AcDbPoint
 10
3199.918972759508
 20
-344.5788188230714
 30
0.0
  0
POINT
  5
76FCE
330
76F43
100
AcDbEntity
  8
Defpoints
 62
     0
100
AcDbPoint
 10
3161.918972759507
 20
-414.5788188230713
 30
0.0
  0
POINT
  5
76FCF
330
76F43
100
AcDbEntity
  8
Defpoints
 62
     0
100
AcDbPoint
 10
3232.046306593097
 20
-414.5788188230713
 30
0.0
  0
ENDBLK
  5
76F45
330
76F43
100
AcDbEntity
  8
0
100
AcDbBlockEnd
  0
BLOCK
  5
76F50
330
76F4F
100
AcDbEntity
  8
0
100
AcDbBlockBegin
  2
*D21
 70
     1
 10
0.0
 20
0.0
 30
0.0
  3
*D21
  1

  0
LINE
  5
76FE9
330
76F4F
100
AcDbEntity
  8
KAKURESEN
 62
     4
370
    -2
100
AcDbLine
 10
3104.137142182714
 20
-427.5409746173671
 30
0.0
 11
3141.591258150346
 21
-416.6694891124743
 31
0.0
  0
MTEXT
  5
76FEA
330
76F4F
100
AcDbEntity
  8
KAKURESEN
 62
     3
100
AcDbMText
 10
3118.512003026701
 20
-416.0795883261719
 30
0.0
 40
10.0
 41
0.0
 71
     5
 72
     1
  1
\A1;R2.5
 11
0.9603619478880286
 21
0.2787560385869899
 31
0.0
 73
     1
 44
1.0
1001
ACAD
1000
MTEXTBEGIN
1070
    73
1070
     1
1070
    44
1040
1.0
1070
    74
1070
     0
1000
MTEXTEND
  0
LINE
  5
76FEB
330
76F4F
100
AcDbEntity
  8
KAKURESEN
 62
     4
370
    -2
100
AcDbLine
 10
3148.793972759507
 20
-414.5788188230719
 30
0.0
 11
3146.393067889786
 21
-415.2757089195394
 31
0.0
  0
INSERT
  5
76FEC
330
76F4F
100
AcDbEntity
  8
KAKURESEN
 62
     4
370
    -2
100
AcDbBlockReference
  2
_Open
 10
3146.393067889786
 20
-415.2757089195394
 30
0.0
 41
5.0
 42
5.0
 43
5.0
 50
16.18597523406946
  0
POINT
  5
76FED
330
76F4F
100
AcDbEntity
  8
Defpoints
 62
     0
100
AcDbPoint
 10
3146.393067889786
 20
-415.2757089195394
 30
0.0
  0
POINT
  5
76FEE
330
76F4F
100
AcDbEntity
  8
Defpoints
 62
     0
100
AcDbPoint
 10
3148.793972759507
 20
-414.5788188230719
 30
0.0
  0
ENDBLK
  5
76F51
330
76F4F
100
AcDbEntity
  8
0
100
AcDbBlockEnd
  0
BLOCK
  5
76F59
330
76F58
100
AcDbEntity
  8
0
100
AcDbBlockBegin
  2
*D22
 70
     1
 10
0.0
 20
0.0
 30
0.0
  3
*D22
  1

  0
LINE
  5
76FEF
330
76F58
100
AcDbEntity
  8
KAKURESEN
 62
     4
370
    -2
100
AcDbLine
 10
3107.166985407793
 20
-453.9564436473608
 30
0.0
 11
3140.827983373176
 21
-430.2006968986745
 31
0.0
  0
MTEXT
  5
76FF0
330
76F58
100
AcDbEntity
  8
KAKURESEN
 62
     3
100
AcDbMText
 10
3117.020182642501
 20
-438.4350228279275
 30
0.0
 40
10.0
 41
0.0
 71
     5
 72
     1
  1
\A1;R4.8
 11
0.8170245524439931
 21
0.5766028795485613
 31
0.0
 73
     1
 44
1.0
1001
ACAD
1000
MTEXTBEGIN
1070
    73
1070
     1
1070
    44
1040
1.0
1070
    74
1070
     0
1000
MTEXTEND
  0
LINE
  5
76FF1
330
76F58
100
AcDbEntity
  8
KAKURESEN
 62
     4
370
    -2
100
AcDbLine
 10
3148.793972759509
 20
-424.5788188230733
 30
0.0
 11
3144.913106135396
 21
-427.3176825009316
 31
0.0
  0
INSERT
  5
76FF2
330
76F58
100
AcDbEntity
  8
KAKURESEN
 62
     4
370
    -2
100
AcDbBlockReference
  2
_Open
 10
3144.913106135396
 20
-427.3176825009316
 30
0.0
 41
5.0
 42
5.0
 43
5.0
 50
35.21196027952028
  0
POINT
  5
76FF3
330
76F58
100
AcDbEntity
  8
Defpoints
 62
     0
100
AcDbPoint
 10
3144.913106135396
 20
-427.3176825009316
 30
0.0
  0
POINT
  5
76FF4
330
76F58
100
AcDbEntity
  8
Defpoints
 62
     0
100
AcDbPoint
 10
3148.793972759509
 20
-424.5788188230733
 30
0.0
  0
ENDBLK
  5
76F5A
330
76F58
100
AcDbEntity
  8
0
100
AcDbBlockEnd
  0
BLOCK
  5
76F62
330
76F61
100
AcDbEntity
  8
0
100
AcDbBlockBegin
  2
*D23
 70
     1
 10
0.0
 20
0.0
 30
0.0
  3
*D23
  1

  0
LINE
  5
76FDC
330
76F61
100
AcDbEntity
  8
KAKURESEN
 62
     4
370
    -2
100
AcDbLine
 10
3111.293972759507
 20
-344.578818823072
 30
0.0
 11
3125.383297810154
 21
-344.578818823072
 31
0.0
  0
LINE
  5
76FDD
330
76F61
100
AcDbEntity
  8
KAKURESEN
 62
     4
370
    -2
100
AcDbLine
 10
3111.293972759509
 20
-354.5788188230741
 30
0.0
 11
3125.383297810154
 21
-354.5788188230741
 31
0.0
  0
LINE
  5
76FDE
330
76F61
100
AcDbEntity
  8
KAKURESEN
 62
     4
370
    -2
100
AcDbLine
 10
3123.883297810154
 20
-339.578818823072
 30
0.0
 11
3123.883297810154
 21
-334.578818823072
 31
0.0
  0
LINE
  5
76FDF
330
76F61
100
AcDbEntity
  8
KAKURESEN
 62
     4
370
    -2
100
AcDbLine
 10
3123.883297810154
 20
-359.5788188230741
 30
0.0
 11
3123.883297810154
 21
-380.2454854897408
 31
0.0
  0
LINE
  5
76FE0
330
76F61
100
AcDbEntity
  8
KAKURESEN
 62
     4
370
    -2
100
AcDbLine
 10
3123.883297810154
 20
-344.578818823072
 30
0.0
 11
3123.883297810154
 21
-354.5788188230741
 31
0.0
  0
INSERT
  5
76FE1
330
76F61
100
AcDbEntity
  8
KAKURESEN
 62
     4
370
    -2
100
AcDbBlockReference
  2
_Open
 10
3123.883297810154
 20
-344.578818823072
 30
0.0
 41
5.0
 42
5.0
 43
5.0
 50
270.0
  0
INSERT
  5
76FE2
330
76F61
100
AcDbEntity
  8
KAKURESEN
 62
     4
370
    -2
100
AcDbBlockReference
  2
_Open
 10
3123.883297810154
 20
-354.5788188230741
 30
0.0
 41
5.0
 42
5.0
 43
5.0
 50
90.0
  0
MTEXT
  5
76FE3
330
76F61
100
AcDbEntity
  8
KAKURESEN
 62
     3
100
AcDbMText
 10
3116.883297810154
 20
-372.4121521564069
 30
0.0
 40
10.0
 41
0.0
 71
     5
 72
     1
  1
\A1;10
 11
0.0000000000000001
 21
1.0
 31
0.0
 73
     1
 44
1.0
1001
ACAD
1000
MTEXTBEGIN
1070
    73
1070
     1
1070
    44
1040
1.0
1070
    74
1070
     0
1000
MTEXTEND
  0
POINT
  5
76FE4
330
76F61
100
AcDbEntity
  8
Defpoints
 62
     0
100
AcDbPoint
 10
3110.793972759506
 20
-344.578818823072
 30
0.0
  0
POINT
  5
76FE5
330
76F61
100
AcDbEntity
  8
Defpoints
 62
     0
100
AcDbPoint
 10
3110.793972759509
 20
-354.5788188230741
 30
0.0
  0
POINT
  5
76FE6
330
76F61
100
AcDbEntity
  8
Defpoints
 62
     0
100
AcDbPoint
 10
3123.883297810154
 20
-354.5788188230741
 30
0.0
  0
ENDBLK
  5
76F63
330
76F61
100
AcDbEntity
  8
0
100
AcDbBlockEnd
  0
ENDSEC
  0
SECTION
  2
ENTITIES
  0
TEXT
  5
13B85
330
1F
100
AcDbEntity
  8
MOJI
100
AcDbText
 10
4059.055832996516
 20
-2419.328548062903
 30
0.0
 40
10.5
  1
　　
  7
STYLE1
100
AcDbText
  0
TEXT
  5
13B87
330
1F
100
AcDbEntity
  8
MOJI
100
AcDbText
 10
4058.71088472634
 20
-2457.043331827393
 30
0.0
 40
10.5
  1
    
  7
STYLE1
100
AcDbText
  0
TEXT
  5
36FA9
330
1F
100
AcDbEntity
  8
MOJI
 48
10.0
100
AcDbText
 10
3698.497830191217
 20
-6253.988298151213
 30
0.0
 40
10.49999999999998
  1

 41
0.7
  7
STYLE1
100
AcDbText
  0
LINE
  5
76134
330
1F
100
AcDbEntity
  8
枠
 62
    21
100
AcDbLine
 10
2801.194742119765
 20
-573.9577029862742
 30
0.0
 11
3561.569742119765
 21
-573.9577029862742
 31
0.0
  0
LINE
  5
76135
330
1F
100
AcDbEntity
  8
枠
 62
    21
100
AcDbLine
 10
2801.194742119765
 20
-30.83270298627486
 30
0.0
 11
3561.569742119765
 21
-30.83270298627486
 31
0.0
  0
LWPOLYLINE
  5
76136
330
1F
100
AcDbEntity
  8
Defpoints
 48
10.0
100
AcDbPolyline
 90
        4
 70
     1
 43
0.0
 10
2761.382242119765
 20
-599.3952029862741
 10
3601.382242119765
 20
-599.3952029862741
 10
3601.382242119765
 20
-5.395202986274853
 10
2761.382242119765
 20
-5.395202986274853
  0
LINE
  5
76137
330
1F
100
AcDbEntity
  8
枠
 62
    21
100
AcDbLine
 10
2801.194742119765
 20
-573.9577029862742
 30
0.0
 11
2801.194742119765
 21
-30.83270298627486
 31
0.0
  0
LINE
  5
76657
330
1F
100
AcDbEntity
  8
枠
 62
    21
100
AcDbLine
 10
3561.569742119765
 20
-573.9577029862742
 30
0.0
 11
3561.569742119765
 21
-30.83270298627486
 31
0.0
  0
LINE
  5
76885
330
1F
100
AcDbEntity
  8
外形２
100
AcDbLine
 10
3400.694742119765
 20
-549.2077029862741
 30
0.0
 11
3561.569742119765
 21
-549.2077029862741
 31
0.0
  0
LINE
  5
76886
330
1F
100
AcDbEntity
  8
外形２
100
AcDbLine
 10
3400.694742119765
 20
-536.8327029862741
 30
0.0
 11
3561.569742119765
 21
-536.8327029862741
 31
0.0
  0
LINE
  5
76887
330
1F
100
AcDbEntity
  8
外形２
100
AcDbLine
 10
3400.694742119765
 20
-524.4577029862742
 30
0.0
 11
3561.569742119765
 21
-524.4577029862742
 31
0.0
  0
LINE
  5
76888
330
1F
100
AcDbEntity
  8
外形２
100
AcDbLine
 10
3400.694742119765
 20
-499.7077029862741
 30
0.0
 11
3561.569742119765
 21
-499.7077029862741
 31
0.0
  0
TEXT
  5
76889
330
1F
100
AcDbEntity
  8
文字
100
AcDbText
 10
3488.570992119765
 20
-547.1452029862741
 30
0.0
 40
8.25
  1
検図
 41
0.7
 72
     1
 11
3494.538492119765
 21
-547.1452029862741
 31
0.0
100
AcDbText
  0
LINE
  5
7688A
330
1F
100
AcDbEntity
  8
外形２
100
AcDbLine
 10
3400.694742119765
 20
-573.9577029862742
 30
0.0
 11
3400.694742119765
 21
-499.7077029862741
 31
0.0
  0
LINE
  5
7688B
330
1F
100
AcDbEntity
  8
外形２
100
AcDbLine
 10
3400.694742119765
 20
-573.9577029862742
 30
0.0
 11
3400.694742119765
 21
-499.7077029862741
 31
0.0
  0
LINE
  5
7688C
330
1F
100
AcDbEntity
  8
外形２
100
AcDbLine
 10
3454.319742119766
 20
-573.9577029862742
 30
0.0
 11
3454.319742119766
 21
-499.7077029862741
 31
0.0
  0
LINE
  5
7688D
330
1F
100
AcDbEntity
  8
外形２
100
AcDbLine
 10
3400.694742119765
 20
-561.5827029862741
 30
0.0
 11
3454.319742119766
 21
-561.5827029862741
 31
0.0
  0
TEXT
  5
7688E
330
1F
100
AcDbEntity
  8
文字
100
AcDbText
 10
3411.337242119766
 20
-559.5202029862742
 30
0.0
 40
8.25
  1
製作年月日
 41
0.7
 72
     1
 11
3427.507242119765
 21
-559.5202029862742
 31
0.0
100
AcDbText
  0
TEXT
  5
7688F
330
1F
100
AcDbEntity
  8
文字
100
AcDbText
 10
3408.738492119765
 20
-571.8952029862741
 30
0.0
 40
8.25
  1
'09.07.28
 41
0.7
 72
     1
 11
3427.507242119765
 21
-571.8952029862741
 31
0.0
100
AcDbText
  0
TEXT
  5
76890
330
1F
100
AcDbEntity
  8
文字
100
AcDbText
 10
3414.224742119766
 20
-534.7702029862741
 30
0.0
 40
8.25
  1
図面番号
 41
0.7
 72
     1
 11
3427.507242119765
 21
-534.7702029862741
 31
0.0
100
AcDbText
  0
TEXT
  5
76891
330
1F
100
AcDbEntity
  8
文字
100
AcDbText
 10
3407.189271012644
 20
-547.1452029862741
 30
0.0
 40
8.25
  1
尺度
 41
0.7
 72
     1
 11
3413.349271012644
 21
-547.1452029862741
 31
0.0
100
AcDbText
  0
TEXT
  5
76892
330
1F
100
AcDbEntity
  8
文字
100
AcDbText
 10
3432.530521012643
 20
-546.3040598809827
 30
0.0
 40
6.1875
  1
１/２
 41
0.8
 72
     1
 11
3439.955521012643
 21
-546.3040598809827
 31
0.0
100
AcDbText
  0
LINE
  5
76893
330
1F
100
AcDbEntity
  8
外形２
100
AcDbLine
 10
3426.033646012643
 20
-536.8327029862741
 30
0.0
 11
3426.033646012643
 21
-549.2077029862741
 31
0.0
  0
LINE
  5
76894
330
1F
100
AcDbEntity
  8
外形２
100
AcDbLine
 10
3481.132242119765
 20
-573.9577029862742
 30
0.0
 11
3481.132242119765
 21
-536.8327029862741
 31
0.0
  0
TEXT
  5
76895
330
1F
100
AcDbEntity
  8
文字
100
AcDbText
 10
3461.758492119765
 20
-547.1452029862741
 30
0.0
 40
8.25
  1
検図
 41
0.7
 72
     1
 11
3467.725992119766
 21
-547.1452029862741
 31
0.0
100
AcDbText
  0
TEXT
  5
76896
330
1F
100
AcDbEntity
  8
文字
100
AcDbText
 10
3417.882242119765
 20
-516.2077029862741
 30
0.0
 40
8.25
  1
名　称
 41
0.7
 72
     1
 11
3427.507242119765
 21
-516.2077029862741
 31
0.0
100
AcDbText
  0
TEXT
  5
76897
330
1F
100
AcDbEntity
  8
文字
100
AcDbText
 10
3542.195992119765
 20
-547.1452029862741
 30
0.0
 40
8.25
  1
製図
 41
0.7
 72
     1
 11
3548.163492119766
 21
-547.1452029862741
 31
0.0
100
AcDbText
  0
LINE
  5
76898
330
1F
100
AcDbEntity
  8
外形２
100
AcDbLine
 10
3507.944742119765
 20
-573.9577029862742
 30
0.0
 11
3507.944742119765
 21
-536.8327029862741
 31
0.0
  0
LINE
  5
76899
330
1F
100
AcDbEntity
  8
外形２
100
AcDbLine
 10
3534.757242119765
 20
-573.9577029862742
 30
0.0
 11
3534.757242119765
 21
-536.8327029862741
 31
0.0
  0
TEXT
  5
7689A
330
1F
100
AcDbEntity
  8
文字
100
AcDbText
 10
3515.383492119765
 20
-547.1452029862741
 30
0.0
 40
8.25
  1
検図
 41
0.7
 72
     1
 11
3521.350992119766
 21
-547.1452029862741
 31
0.0
100
AcDbText
  0
TEXT
  5
7689B
330
1F
100
AcDbEntity
  8
文字
100
AcDbText
 10
3456.382242119765
 20
-534.8403277272707
 30
0.0
 40
7.21875
  1
ＳＣ１-Ａ　
 41
0.7
100
AcDbText
  0
MTEXT
  5
7689C
330
1F
100
AcDbEntity
  8
文字
100
AcDbMText
 10
3460.274784651988
 20
-504.8002971186281
 30
0.0
 40
5.625
 41
86.42560293295945
 71
     1
 72
     5
  1
便座クリーナー　Aタイプ
 73
     1
 44
1.0
1001
ACAD
1000
MTEXTBEGIN
1070
    73
1070
     1
1070
    44
1040
1.0
1070
    74
1070
     0
1000
MTEXTEND
  0
ARC
  5
76B00
330
1F
100
AcDbEntity
  8
KAKURESEN
 48
10.0
100
AcDbCircle
 10
3148.793972759507
 20
-192.8358516666595
 30
0.0
 40
25.0
100
AcDbArc
 50
4.248022666729085
 51
175.7519773332709
  0
LINE
  5
76B01
330
1F
100
AcDbEntity
  8
仮想線
100
AcDbLine
 10
3132.794616311887
 20
-199.5810563600199
 30
0.0
 11
3138.794616311888
 21
-199.5810563600199
 31
0.0
  0
LINE
  5
76B02
330
1F
100
AcDbEntity
  8
外形１
100
AcDbLine
 10
3203.793972759507
 20
-107.5812702335797
 30
0.0
 11
3093.793972759507
 21
-107.5812702335797
 31
0.0
  0
LINE
  5
76B03
330
1F
100
AcDbEntity
  8
外形１
 48
30.0
100
AcDbLine
 10
3090.793972759507
 20
-197.5812667222118
 30
0.0
 11
3206.793972759507
 21
-197.5812667222119
 31
0.0
  0
LINE
  5
76B04
330
1F
100
AcDbEntity
  8
KAKURESEN
 48
10.0
100
AcDbLine
 10
3087.793972759508
 20
-216.3901741731862
 30
0.0
 11
3209.793972759507
 21
-216.390174173186
 31
0.0
  0
LINE
  5
76B05
330
1F
100
AcDbEntity
  8
外形１
100
AcDbLine
 10
3087.793972759508
 20
-217.8812667222116
 30
0.0
 11
3209.793972759507
 21
-217.8812667222117
 31
0.0
  0
LINE
  5
76B06
330
1F
100
AcDbEntity
  8
外形１
100
AcDbLine
 10
3092.793972759507
 20
-110.081265483887
 30
0.0
 11
3204.793972759507
 21
-110.081265483887
 31
0.0
  0
LINE
  5
76B07
330
1F
100
AcDbEntity
  8
外形１
100
AcDbLine
 10
3092.793972759507
 20
-105.5812667222127
 30
0.0
 11
3204.793972759507
 21
-105.5812667222128
 31
0.0
  0
LINE
  5
76B08
330
1F
100
AcDbEntity
  8
外形１
100
AcDbLine
 10
3203.793972759507
 20
-106.5812702335798
 30
0.0
 11
3093.793972759507
 21
-106.5812702335797
 31
0.0
  0
LINE
  5
76B09
330
1F
100
AcDbEntity
  8
外形１
100
AcDbLine
 10
3204.793972759507
 20
-455.5788189901547
 30
0.0
 11
3092.793972759507
 21
-455.5788189901549
 31
0.0
  0
LINE
  5
76B0A
330
1F
100
AcDbEntity
  8
外形１
100
AcDbLine
 10
3204.793972759507
 20
-454.5780321554685
 30
0.0
 11
3092.793972759507
 21
-454.5780321554685
 31
0.0
  0
LINE
  5
76B0B
330
1F
100
AcDbEntity
  8
外形１
100
AcDbLine
 10
3209.793972759507
 20
-270.5788189901547
 30
0.0
 11
3087.793972759508
 21
-270.5788189901548
 31
0.0
  0
LINE
  5
76B0C
330
1F
100
AcDbEntity
  8
KAKURESEN
 48
10.0
100
AcDbLine
 10
3209.793972759507
 20
-272.0788189901547
 30
0.0
 11
3087.793972759507
 21
-272.0788189901547
 31
0.0
  0
LINE
  5
76B0D
330
1F
100
AcDbEntity
  8
外形１
100
AcDbLine
 10
3198.793972759507
 20
-270.5788189901548
 30
0.0
 11
3098.793972759507
 21
-270.5788189901549
 31
0.0
  0
LINE
  5
76B0E
330
1F
100
AcDbEntity
  8
KAKURESEN
 48
10.0
100
AcDbLine
 10
3201.293972759507
 20
-274.578818823073
 30
0.0
 11
3096.293972759507
 21
-274.578818823073
 31
0.0
  0
LINE
  5
76B0F
330
1F
100
AcDbEntity
  8
KAKURESEN
 48
10.0
100
AcDbLine
 10
3203.793972759507
 20
-454.5788189901549
 30
0.0
 11
3093.793972759507
 21
-454.5788189901549
 31
0.0
  0
DIMENSION
  5
76B10
330
1F
100
AcDbEntity
  8
寸法
100
AcDbDimension
  2
*D1
 10
3209.793972759507
 20
-250.0949947227045
 30
0.0
 11
3148.793972759507
 21
-243.0949947227045
 31
0.0
 70
    32
 71
     5
 42
121.9999999999995
  3
STANDARD-2
100
AcDbAlignedDimension
 13
3087.793972759508
 23
-270.5788189901548
 33
0.0
 14
3209.793972759507
 24
-270.5788189901547
 34
0.0
100
AcDbRotatedDimension
1001
ACAD
1000
DSTYLE
1002
{
1070
    40
1040
1.0
1002
}
  0
CIRCLE
  5
76B11
330
1F
100
AcDbEntity
  8
仮想線
100
AcDbCircle
 10
3148.793972759506
 20
-148.5812702335782
 30
0.0
 40
16.0
  0
LINE
  5
76B12
330
1F
100
AcDbEntity
  8
センター
 48
10.0
100
AcDbLine
 10
3080.632484943136
 20
-148.581270233578
 30
0.0
 11
3216.955460575878
 21
-148.5812702335779
 31
0.0
  0
LINE
  5
76B13
330
1F
100
AcDbEntity
  8
仮想線
100
AcDbLine
 10
3103.293972759507
 20
-106.5812702335789
 30
0.0
 11
3194.293972759507
 21
-106.5812702335805
 31
0.0
  0
DIMENSION
  5
76B14
330
1F
100
AcDbEntity
  8
寸法
100
AcDbDimension
  2
*D2
 10
3204.793972759507
 20
-82.51993282527758
 30
0.0
 11
3148.793972759507
 21
-75.51993282527758
 31
0.0
 70
    32
 71
     5
 42
112.0
  3
STANDARD-2
100
AcDbAlignedDimension
 13
3092.793972759507
 23
-105.5812667222127
 33
0.0
 14
3204.793972759507
 24
-105.5812667222128
 34
0.0
100
AcDbRotatedDimension
1001
ACAD
1000
DSTYLE
1002
{
1070
    40
1040
1.0
1002
}
  0
LINE
  5
76B15
330
1F
100
AcDbEntity
  8
仮想線
100
AcDbLine
 10
3103.293972759507
 20
-190.5812702335794
 30
0.0
 11
3194.293972759507
 21
-190.5812702335794
 31
0.0
  0
LINE
  5
76B16
330
1F
100
AcDbEntity
  8
KAKURESEN
 48
10.0
100
AcDbLine
 10
3204.793972759507
 20
-455.5788189901547
 30
0.0
 11
3092.793972759507
 21
-455.5788189901549
 31
0.0
  0
DIMENSION
  5
76B17
330
1F
100
AcDbEntity
  8
寸法
100
AcDbDimension
  2
*D3
 10
3057.154904082456
 20
-217.8812667222116
 30
0.0
 11
3050.154904082456
 21
-161.7312667222116
 31
0.0
 70
    32
 71
     5
 42
112.2999999999988
  3
STANDARD-2
100
AcDbAlignedDimension
 13
3092.793972759507
 23
-105.5812667222127
 33
0.0
 14
3087.793972759508
 24
-217.8812667222116
 34
0.0
 50
90.0
100
AcDbRotatedDimension
  0
LINE
  5
76B18
330
1F
100
AcDbEntity
  8
KAKURESEN
 48
10.0
100
AcDbLine
 10
3093.793972759507
 20
-202.8358516666596
 30
0.0
 11
3093.793972759507
 21
-106.5812702335797
 31
0.0
  0
LINE
  5
76B19
330
1F
100
AcDbEntity
  8
KAKURESEN
 48
10.0
100
AcDbLine
 10
3092.793972759507
 20
-202.8358516666596
 30
0.0
 11
3092.793972759507
 21
-105.5812667222127
 31
0.0
  0
LINE
  5
76B1A
330
1F
100
AcDbEntity
  8
外形１
 48
30.0
100
AcDbLine
 10
3087.793972759508
 20
-217.8812667222116
 30
0.0
 11
3087.793972759508
 21
-115.081265483887
 31
0.0
  0
LINE
  5
76B1B
330
1F
100
AcDbEntity
  8
仮想線
100
AcDbLine
 10
3096.293972759507
 20
-113.5812702335789
 30
0.0
 11
3096.293972759506
 21
-183.5812702335794
 31
0.0
  0
LINE
  5
76B1C
330
1F
100
AcDbEntity
  8
外形１
 48
30.0
100
AcDbLine
 10
3087.793972759507
 20
-270.5788189901549
 30
0.0
 11
3087.793972759507
 21
-449.5780321554685
 31
0.0
  0
LINE
  5
76B1D
330
1F
100
AcDbEntity
  8
KAKURESEN
 48
10.0
100
AcDbLine
 10
3093.793972759507
 20
-272.0788189901547
 30
0.0
 11
3093.793972759507
 21
-454.5788189901549
 31
0.0
  0
LINE
  5
76B1E
330
1F
100
AcDbEntity
  8
KAKURESEN
 48
10.0
100
AcDbLine
 10
3092.793972759507
 20
-272.0788189901547
 30
0.0
 11
3092.793972759507
 21
-455.5788189901549
 31
0.0
  0
LINE
  5
76B1F
330
1F
100
AcDbEntity
  8
外形１
100
AcDbLine
 10
3092.793972759507
 20
-455.5788189901549
 30
0.0
 11
3092.793972759507
 21
-454.5788189901549
 31
0.0
  0
ARC
  5
76B20
330
1F
100
AcDbEntity
  8
外形１
100
AcDbCircle
 10
3092.793972759507
 20
-449.5780321554685
 30
0.0
 40
5.0
100
AcDbArc
 50
180.0
 51
270.0
  0
LINE
  5
76B21
330
1F
100
AcDbEntity
  8
外形１
100
AcDbLine
 10
3093.793972759507
 20
-270.5788189901551
 30
0.0
 11
3092.793972759507
 21
-270.5788189901549
 31
0.0
  0
LINE
  5
76B22
330
1F
100
AcDbEntity
  8
KAKURESEN
 48
10.0
100
AcDbLine
 10
3096.293972759507
 20
-274.578818823073
 30
0.0
 11
3093.793972759507
 21
-274.578818823073
 31
0.0
  0
ARC
  5
76B23
330
1F
100
AcDbEntity
  8
仮想線
100
AcDbCircle
 10
3103.293972759507
 20
-183.5812702335794
 30
0.0
 40
7.0
100
AcDbArc
 50
180.0
 51
270.0
  0
LINE
  5
76B24
330
1F
100
AcDbEntity
  8
仮想線
100
AcDbLine
 10
3132.794616311887
 20
-190.5812702335793
 30
0.0
 11
3132.794616311887
 21
-199.5810563600199
 31
0.0
  0
LINE
  5
76B25
330
1F
100
AcDbEntity
  8
KAKURESEN
 48
10.0
100
AcDbLine
 10
3092.793972759507
 20
-202.8358516666594
 30
0.0
 11
3121.868148723834
 21
-202.8358516666596
 31
0.0
  0
LINE
  5
76B26
330
1F
100
AcDbEntity
  8
外形１
100
AcDbLine
 10
3093.793972759507
 20
-106.5812702335797
 30
0.0
 11
3093.793972759507
 21
-110.081265483887
 31
0.0
  0
LINE
  5
76B27
330
1F
100
AcDbEntity
  8
外形１
100
AcDbLine
 10
3092.793972759507
 20
-105.5812667222127
 30
0.0
 11
3092.793972759507
 21
-110.081265483887
 31
0.0
  0
ARC
  5
76B28
330
1F
100
AcDbEntity
  8
仮想線
100
AcDbCircle
 10
3103.293972759507
 20
-113.5812702335789
 30
0.0
 40
7.0
100
AcDbArc
 50
90.0
 51
180.0
  0
LINE
  5
76B29
330
1F
100
AcDbEntity
  8
KAKURESEN
 48
10.0
100
AcDbLine
 10
3203.793972759507
 20
-202.8358516666596
 30
0.0
 11
3203.793972759507
 21
-106.5812702335798
 31
0.0
  0
LINE
  5
76B2A
330
1F
100
AcDbEntity
  8
KAKURESEN
 48
10.0
100
AcDbLine
 10
3204.793972759507
 20
-202.8358516666596
 30
0.0
 11
3204.793972759507
 21
-105.5812667222128
 31
0.0
  0
LINE
  5
76B2B
330
1F
100
AcDbEntity
  8
外形１
100
AcDbLine
 10
3209.793972759507
 20
-217.8812667222117
 30
0.0
 11
3209.793972759506
 21
-115.081265483887
 31
0.0
  0
LINE
  5
76B2C
330
1F
100
AcDbEntity
  8
センター
 48
10.0
100
AcDbLine
 10
3148.793972759507
 20
-85.72539096677372
 30
0.0
 11
3148.793972759507
 21
-304.4423451237961
 31
0.0
  0
LINE
  5
76B2D
330
1F
100
AcDbEntity
  8
仮想線
100
AcDbLine
 10
3201.293972759508
 20
-113.5812702335805
 30
0.0
 11
3201.293972759506
 21
-183.5812702335794
 31
0.0
  0
LINE
  5
76B30
102
{ACAD_REACTORS
330
76DA0
102
}
330
1F
100
AcDbEntity
  8
外形１
 48
30.0
100
AcDbLine
 10
3360.785087130124
 20
-275.1947489013344
 30
0.0
 11
3340.975660212779
 21
-454.6262932379901
 31
0.0
  0
LINE
  5
76B31
102
{ACAD_REACTORS
330
76DA0
102
}
330
1F
100
AcDbEntity
  8
外形１
 48
30.0
100
AcDbLine
 10
3359.294145696941
 20
-275.0301474346998
 30
0.0
 11
3339.484718779595
 21
-454.4616917713535
 31
0.0
  0
DIMENSION
  5
76B32
330
1F
100
AcDbEntity
  8
寸法
100
AcDbDimension
  2
*D4
 10
3315.828647318224
 20
-451.8500371679338
 30
0.0
 11
3319.021349706421
 21
-359.1404605996971
 31
0.0
 70
    33
 71
     5
 42
185.0000966053948
  3
STANDARD-2
100
AcDbAlignedDimension
 13
3359.785576932365
 23
-270.5788189901548
 33
0.0
 14
3339.484718779595
 24
-454.4616917713535
 34
0.0
  0
LINE
  5
76B33
330
1F
100
AcDbEntity
  8
外形１
 48
30.0
100
AcDbLine
 10
3209.793972759507
 20
-270.5788189901547
 30
0.0
 11
3209.793972759507
 21
-449.5780321554685
 31
0.0
  0
LINE
  5
76B34
330
1F
100
AcDbEntity
  8
KAKURESEN
 48
10.0
100
AcDbLine
 10
3203.793972759508
 20
-272.0788189901547
 30
0.0
 11
3203.793972759507
 21
-454.5788189901549
 31
0.0
  0
LINE
  5
76B35
330
1F
100
AcDbEntity
  8
仮想線
100
AcDbLine
 10
3447.785573420997
 20
-313.5789355307586
 30
0.0
 11
3447.785559096177
 21
-448.5793755292481
 31
0.0
  0
LINE
  5
76B36
330
1F
100
AcDbEntity
  8
仮想線
100
AcDbLine
 10
3363.785574201328
 20
-313.5789347504283
 30
0.0
 11
3363.785574201328
 21
-382.4901405536425
 31
0.0
  0
LINE
  5
76B37
330
1F
100
AcDbEntity
  8
センター
 48
10.0
100
AcDbLine
 10
3148.793972759507
 20
-203.551382113642
 30
0.0
 11
3148.793972759507
 21
-470.9621292910888
 31
0.0
  0
DIMENSION
  5
76B38
330
1F
100
AcDbEntity
  8
寸法
100
AcDbDimension
  2
*D5
 10
3058.033136850536
 20
-270.5788189901548
 30
0.0
 11
3051.033136850536
 21
-363.0788189901543
 31
0.0
 70
    32
 71
     5
 42
185.0000000000001
  3
STANDARD-2
100
AcDbAlignedDimension
 13
3092.793972759507
 23
-455.5788189901549
 33
0.0
 14
3087.793972759508
 24
-270.5788189901548
 34
0.0
 50
90.0
100
AcDbRotatedDimension
  0
LINE
  5
76B39
330
1F
100
AcDbEntity
  8
KAKURESEN
 48
10.0
100
AcDbLine
 10
3204.793972759507
 20
-272.0788189901547
 30
0.0
 11
3204.793972759507
 21
-455.5788189901547
 31
0.0
  0
LINE
  5
76B3A
330
1F
100
AcDbEntity
  8
外形１
 48
30.0
100
AcDbLine
 10
3451.785576932364
 20
-274.578818823073
 30
0.0
 11
3451.785558427315
 21
-455.5794545099343
 31
0.0
  0
LINE
  5
76B3C
330
1F
100
AcDbEntity
  8
KAKURESEN
 48
10.0
100
AcDbLine
 10
3450.785576932364
 20
-274.5788187115971
 30
0.0
 11
3450.785561513641
 21
-454.5794393786637
 31
0.0
  0
ARC
  5
76B3D
330
1F
100
AcDbEntity
  8
仮想線
100
AcDbCircle
 10
3442.785559096178
 20
-448.5793749718692
 30
0.0
 40
5.0
100
AcDbArc
 50
269.9990898441249
 51
359.9999936129104
  0
LINE
  5
76B3E
330
1F
100
AcDbEntity
  8
外形１
 48
30.0
100
AcDbLine
 10
3354.530973482868
 20
-455.5779829088241
 30
0.0
 11
3451.785558427315
 21
-455.5794545099343
 31
0.0
  0
LINE
  5
76B40
330
1F
100
AcDbEntity
  8
センター
 48
10.0
100
AcDbLine
 10
3188.793972759507
 20
-404.7532620848406
 30
0.0
 11
3188.793972759507
 21
-470.9759351343592
 31
0.0
  0
LINE
  5
76B48
330
1F
100
AcDbEntity
  8
外形１
100
AcDbLine
 10
3179.293972759506
 20
-456.5780321554686
 30
0.0
 11
3198.293972759506
 21
-456.5780321554686
 31
0.0
  0
LINE
  5
76B49
330
1F
100
AcDbEntity
  8
外形１
100
AcDbLine
 10
3179.293972759506
 20
-456.5780321554686
 30
0.0
 11
3179.293972759506
 21
-455.5788189901547
 31
0.0
  0
LINE
  5
76B4A
330
1F
100
AcDbEntity
  8
外形１
100
AcDbLine
 10
3180.793972759506
 20
-457.5780321554685
 30
0.0
 11
3179.293972759506
 21
-456.5780321554686
 31
0.0
  0
LINE
  5
76B4B
330
1F
100
AcDbEntity
  8
外形１
100
AcDbLine
 10
3196.793972759506
 20
-457.5780321554685
 30
0.0
 11
3180.793972759506
 21
-457.5780321554685
 31
0.0
  0
LINE
  5
76B4C
330
1F
100
AcDbEntity
  8
外形１
100
AcDbLine
 10
3198.293972759506
 20
-456.5780321554686
 30
0.0
 11
3196.793972759506
 21
-457.5780321554685
 31
0.0
  0
LINE
  5
76B4D
330
1F
100
AcDbEntity
  8
外形１
100
AcDbLine
 10
3198.293972759506
 20
-455.5788189901547
 30
0.0
 11
3198.293972759506
 21
-456.5780321554686
 31
0.0
  0
LINE
  5
76B4E
330
1F
100
AcDbEntity
  8
KAKURESEN
  6
Continuous
100
AcDbLine
 10
3175.173063406849
 20
-451.1587976682863
 30
0.0
 11
3174.484622943572
 21
-454.582968836415
 31
0.0
  0
LINE
  5
76B4F
330
1F
100
AcDbEntity
  8
KAKURESEN
  6
Continuous
100
AcDbLine
 10
3174.578637456554
 20
-451.5848681160843
 30
0.0
 11
3173.992991694942
 21
-454.4915789024452
 31
0.0
  0
LINE
  5
76B50
330
1F
100
AcDbEntity
  8
KAKURESEN
  6
Continuous
100
AcDbLine
 10
3174.484622943572
 20
-454.582968836415
 30
0.0
 11
3173.992991694942
 21
-454.4915789024452
 31
0.0
  0
ARC
  5
76B51
330
1F
100
AcDbEntity
  8
KAKURESEN
  6
Continuous
100
AcDbCircle
 10
3175.074583903493
 20
-451.6490929871682
 30
0.0
 40
0.5000877046065196
100
AcDbArc
 50
78.64283257949558
 51
172.6212834761116
  0
LINE
  5
76B52
330
1F
100
AcDbEntity
  8
KAKURESEN
  6
Continuous
100
AcDbLine
 10
3178.570992834251
 20
-452.4170872594867
 30
0.0
 11
3175.103713957993
 21
-451.6554041488767
 31
0.0
  0
LINE
  5
76B53
330
1F
100
AcDbEntity
  8
KAKURESEN
  6
Continuous
100
AcDbLine
 10
3178.621209362148
 20
-451.9161962943222
 30
0.0
 11
3175.173063406849
 21
-451.1587976682863
 31
0.0
  0
LWPOLYLINE
  5
76B54
330
1F
100
AcDbEntity
  8
KAKURESEN
 48
10.0
100
AcDbPolyline
 90
        4
 70
     1
 43
0.0
 10
3187.293972759507
 20
-419.5780321554681
 10
3190.293972759506
 20
-419.5780321554681
 10
3190.293972759506
 20
-444.5780321554681
 10
3187.293972759507
 20
-444.5780321554681
  0
LINE
  5
76B55
330
1F
100
AcDbEntity
  8
KAKURESEN
  6
Continuous
100
AcDbLine
 10
3197.884599616241
 20
-454.5985249995531
 30
0.0
 11
3194.321266763485
 21
-454.1377560981787
 31
0.0
  0
LINE
  5
76B56
330
1F
100
AcDbEntity
  8
KAKURESEN
  6
Continuous
100
AcDbLine
 10
3197.948719975463
 20
-454.1026534642407
 30
0.0
 11
3194.384718687878
 21
-453.6417981286218
 31
0.0
  0
LINE
  5
76B57
330
1F
100
AcDbEntity
  8
KAKURESEN
  6
Continuous
100
AcDbLine
 10
3197.948719975463
 20
-454.1026534642407
 30
0.0
 11
3197.884599616241
 21
-454.5985249995531
 31
0.0
  0
ARC
  5
76B58
330
1F
100
AcDbEntity
  8
KAKURESEN
  6
Continuous
100
AcDbCircle
 10
3189.675125311982
 20
-423.654493291432
 30
0.0
 40
30.33782210352351
100
AcDbArc
 50
248.7431642704081
 51
278.7621942426804
  0
ARC
  5
76B59
330
1F
100
AcDbEntity
  8
KAKURESEN
  6
Continuous
100
AcDbCircle
 10
3189.667818278412
 20
-423.7838695066731
 30
0.0
 40
30.70831636248115
100
AcDbArc
 50
248.8161216521988
 51
278.7144974718377
  0
ARC
  5
76B5A
330
1F
100
AcDbEntity
  8
KAKURESEN
  6
Continuous
100
AcDbCircle
 10
3194.320598328655
 20
-454.1376696639339
 30
0.0
 40
0.5
100
AcDbArc
 50
82.63205802778065
 51
92.75123002777361
  0
ARC
  5
76B5B
330
1F
100
AcDbEntity
  8
KAKURESEN
  6
Continuous
100
AcDbCircle
 10
3167.745938969668
 20
-501.5529509479501
 30
0.0
 40
50.8141606115261
100
AcDbArc
 50
77.57848305338747
 51
77.64193338005362
  0
LINE
  5
76B5C
330
1F
100
AcDbEntity
  8
KAKURESEN
 48
10.0
100
AcDbLine
 10
3195.293972759506
 20
-444.5780321554681
 30
0.0
 11
3182.293972759506
 21
-444.5780321554681
 31
0.0
  0
LINE
  5
76B5D
330
1F
100
AcDbEntity
  8
KAKURESEN
 48
10.0
100
AcDbLine
 10
3195.293972759506
 20
-442.9780321554682
 30
0.0
 11
3182.293972759506
 21
-442.9780321554682
 31
0.0
  0
LINE
  5
76B5E
330
1F
100
AcDbEntity
  8
KAKURESEN
100
AcDbLine
 10
3182.293972759506
 20
-442.9780321554682
 30
0.0
 11
3182.293972759506
 21
-444.5780321554681
 31
0.0
  0
LINE
  5
76B5F
330
1F
100
AcDbEntity
  8
細線
  6
ByBlock
 48
10.0
100
AcDbLine
 10
3183.971972759506
 20
-454.8780321554683
 30
0.0
 11
3183.971972759506
 21
-454.8780321554683
 31
0.0
  0
LINE
  5
76B60
330
1F
100
AcDbEntity
  8
細線
  6
ByBlock
 48
10.0
100
AcDbLine
 10
3183.971972759506
 20
-454.8780321554683
 30
0.0
 11
3183.971972759506
 21
-454.8780321554683
 31
0.0
  0
LINE
  5
76B61
330
1F
100
AcDbEntity
  8
細線
  6
ByBlock
 48
10.0
100
AcDbLine
 10
3183.971972759506
 20
-454.8780321554683
 30
0.0
 11
3183.971972759506
 21
-454.8780321554683
 31
0.0
  0
LINE
  5
76B62
330
1F
100
AcDbEntity
  8
細線
  6
ByBlock
 48
10.0
100
AcDbLine
 10
3183.971972759506
 20
-454.8780321554683
 30
0.0
 11
3183.971972759506
 21
-454.8780321554683
 31
0.0
  0
LINE
  5
76B63
330
1F
100
AcDbEntity
  8
細線
  6
ByBlock
 48
10.0
100
AcDbLine
 10
3183.971972759506
 20
-454.8780321554683
 30
0.0
 11
3183.971972759506
 21
-454.8780321554683
 31
0.0
  0
LINE
  5
76B64
330
1F
100
AcDbEntity
  8
細線
  6
ByBlock
 48
10.0
100
AcDbLine
 10
3183.971972759506
 20
-454.8780321554683
 30
0.0
 11
3183.971972759506
 21
-454.8780321554683
 31
0.0
  0
LINE
  5
76B65
330
1F
100
AcDbEntity
  8
KAKURESEN
 48
10.0
100
AcDbLine
 10
3179.293972759506
 20
-456.5780321554686
 30
0.0
 11
3198.293972759506
 21
-456.5780321554686
 31
0.0
  0
LINE
  5
76B66
330
1F
100
AcDbEntity
  8
KAKURESEN
 48
10.0
100
AcDbLine
 10
3179.293972759506
 20
-455.5780321554685
 30
0.0
 11
3198.293972759506
 21
-455.5780321554685
 31
0.0
  0
LINE
  5
76B67
330
1F
100
AcDbEntity
  8
KAKURESEN
 48
10.0
100
AcDbLine
 10
3180.793972759506
 20
-457.5780321554685
 30
0.0
 11
3196.793972759506
 21
-457.5780321554685
 31
0.0
  0
LINE
  5
76B68
330
1F
100
AcDbEntity
  8
KAKURESEN
 48
10.0
100
AcDbLine
 10
3179.293972759506
 20
-456.5780321554686
 30
0.0
 11
3180.793972759506
 21
-457.5780321554685
 31
0.0
  0
LINE
  5
76B69
330
1F
100
AcDbEntity
  8
KAKURESEN
 48
10.0
100
AcDbLine
 10
3179.293972759506
 20
-456.5780321554686
 30
0.0
 11
3179.293972759506
 21
-455.5780321554685
 31
0.0
  0
LINE
  5
76B6A
330
1F
100
AcDbEntity
  8
細線
  6
ByBlock
100
AcDbLine
 10
3183.971972759506
 20
-453.0780321554686
 30
0.0
 11
3193.615972759507
 21
-451.0780321554685
 31
0.0
  0
LINE
  5
76B6B
330
1F
100
AcDbEntity
  8
細線
  6
ByBlock
100
AcDbLine
 10
3183.971972759506
 20
-451.0780321554685
 30
0.0
 11
3193.615972759507
 21
-453.0780321554686
 31
0.0
  0
LINE
  5
76B6C
330
1F
100
AcDbEntity
  8
KAKURESEN
 48
10.0
100
AcDbLine
 10
3183.971972759506
 20
-453.0780321554686
 30
0.0
 11
3183.971972759506
 21
-451.0780321554685
 31
0.0
  0
LINE
  5
76B6D
330
1F
100
AcDbEntity
  8
KAKURESEN
 48
10.0
100
AcDbLine
 10
3193.615972759507
 20
-453.0780321554686
 30
0.0
 11
3193.615972759507
 21
-451.0780321554685
 31
0.0
  0
LINE
  5
76B6E
330
1F
100
AcDbEntity
  8
KAKURESEN
 48
10.0
100
AcDbLine
 10
3181.793972759507
 20
-455.5780321554685
 30
0.0
 11
3181.793972759507
 21
-444.7780321554684
 31
0.0
  0
LINE
  5
76B6F
330
1F
100
AcDbEntity
  8
KAKURESEN
 48
10.0
100
AcDbLine
 10
3195.793972759507
 20
-455.5780321554685
 30
0.0
 11
3195.793972759507
 21
-444.7780321554684
 31
0.0
  0
LINE
  5
76B70
330
1F
100
AcDbEntity
  8
細線
  6
ByBlock
100
AcDbLine
 10
3193.615972759507
 20
-453.8780321554683
 30
0.0
 11
3183.971972759506
 21
-454.8780321554683
 31
0.0
  0
LINE
  5
76B71
330
1F
100
AcDbEntity
  8
細線
  6
ByBlock
100
AcDbLine
 10
3183.971972759506
 20
-453.8780321554683
 30
0.0
 11
3193.615972759507
 21
-454.8780321554683
 31
0.0
  0
LINE
  5
76B72
330
1F
100
AcDbEntity
  8
KAKURESEN
 48
10.0
100
AcDbLine
 10
3183.971972759506
 20
-454.8780321554683
 30
0.0
 11
3193.615972759507
 21
-454.8780321554683
 31
0.0
  0
LINE
  5
76B73
330
1F
100
AcDbEntity
  8
KAKURESEN
 48
10.0
100
AcDbLine
 10
3183.971972759506
 20
-453.8780321554683
 30
0.0
 11
3193.615972759507
 21
-453.8780321554683
 31
0.0
  0
LINE
  5
76B74
330
1F
100
AcDbEntity
  8
KAKURESEN
 48
10.0
100
AcDbLine
 10
3183.971972759506
 20
-453.0780321554686
 30
0.0
 11
3193.615972759507
 21
-453.0780321554686
 31
0.0
  0
LINE
  5
76B75
330
1F
100
AcDbEntity
  8
KAKURESEN
 48
10.0
100
AcDbLine
 10
3183.971972759506
 20
-454.8780321554683
 30
0.0
 11
3183.971972759506
 21
-453.8780321554683
 31
0.0
  0
LINE
  5
76B76
330
1F
100
AcDbEntity
  8
KAKURESEN
 48
10.0
100
AcDbLine
 10
3193.615972759507
 20
-454.8780321554683
 30
0.0
 11
3193.615972759507
 21
-453.8780321554683
 31
0.0
  0
LINE
  5
76B77
330
1F
100
AcDbEntity
  8
KAKURESEN
 48
10.0
100
AcDbLine
 10
3196.793972759506
 20
-457.5780321554685
 30
0.0
 11
3198.293972759506
 21
-456.5780321554686
 31
0.0
  0
LINE
  5
76B78
330
1F
100
AcDbEntity
  8
KAKURESEN
 48
10.0
100
AcDbLine
 10
3198.293972759506
 20
-456.5780321554686
 30
0.0
 11
3198.293972759506
 21
-455.5780321554685
 31
0.0
  0
LINE
  5
76B79
330
1F
100
AcDbEntity
  8
KAKURESEN
 48
10.0
100
AcDbLine
 10
3183.971972759506
 20
-451.0780321554685
 30
0.0
 11
3193.615972759507
 21
-451.0780321554685
 31
0.0
  0
LINE
  5
76B7A
330
1F
100
AcDbEntity
  8
KAKURESEN
 48
10.0
100
AcDbLine
 10
3186.743972759507
 20
-442.0780321554681
 30
0.0
 11
3191.243972759506
 21
-442.0780321554681
 31
0.0
  0
LINE
  5
76B7B
330
1F
100
AcDbEntity
  8
KAKURESEN
 48
10.0
100
AcDbLine
 10
3181.793972759507
 20
-448.7780321554684
 30
0.0
 11
3195.793972759507
 21
-448.7780321554684
 31
0.0
  0
LINE
  5
76B7C
330
1F
100
AcDbEntity
  8
KAKURESEN
 48
10.0
100
AcDbLine
 10
3181.793972759507
 20
-449.7780321554683
 30
0.0
 11
3195.793972759507
 21
-449.7780321554683
 31
0.0
  0
LINE
  5
76B7D
330
1F
100
AcDbEntity
  8
KAKURESEN
 48
10.0
100
AcDbLine
 10
3181.793972759507
 20
-445.2780321554683
 30
0.0
 11
3195.793972759507
 21
-445.2780321554683
 31
0.0
  0
LINE
  5
76B7E
330
1F
100
AcDbEntity
  8
KAKURESEN
 48
10.0
100
AcDbLine
 10
3181.793972759507
 20
-444.7780321554684
 30
0.0
 11
3195.793972759507
 21
-444.7780321554684
 31
0.0
  0
LINE
  5
76B7F
330
1F
100
AcDbEntity
  8
KAKURESEN
 48
10.0
100
AcDbLine
 10
3183.793972759506
 20
-444.7780321554684
 30
0.0
 11
3183.793972759506
 21
-444.5780321554681
 31
0.0
  0
LINE
  5
76B80
330
1F
100
AcDbEntity
  8
KAKURESEN
 48
10.0
100
AcDbLine
 10
3186.743972759507
 20
-442.9780321554682
 30
0.0
 11
3186.743972759507
 21
-442.0780321554681
 31
0.0
  0
LINE
  5
76B81
330
1F
100
AcDbEntity
  8
KAKURESEN
 48
10.0
100
AcDbLine
 10
3191.243972759506
 20
-442.9780321554682
 30
0.0
 11
3191.243972759506
 21
-442.0780321554681
 31
0.0
  0
LINE
  5
76B82
330
1F
100
AcDbEntity
  8
KAKURESEN
 48
10.0
100
AcDbLine
 10
3193.793972759506
 20
-444.7780321554684
 30
0.0
 11
3193.793972759506
 21
-444.5780321554681
 31
0.0
  0
LINE
  5
76B83
330
1F
100
AcDbEntity
  8
KAKURESEN
 48
10.0
100
AcDbLine
 10
3195.293972759506
 20
-444.5780321554681
 30
0.0
 11
3195.293972759506
 21
-442.9780321554682
 31
0.0
  0
LINE
  5
76B84
330
1F
100
AcDbEntity
  8
外形１
100
AcDbLine
 10
3204.793972759507
 20
-454.5780321554685
 30
0.0
 11
3204.793972759507
 21
-455.5788189901547
 31
0.0
  0
ARC
  5
76B85
330
1F
100
AcDbEntity
  8
外形１
100
AcDbCircle
 10
3204.793972759507
 20
-449.5780321554685
 30
0.0
 40
5.0
100
AcDbArc
 50
270.0
 51
0.0
  0
ARC
  5
76B86
330
1F
100
AcDbEntity
  8
仮想線
100
AcDbCircle
 10
3402.78557420133
 20
-406.8966887931298
 30
0.0
 40
5.0
100
AcDbArc
 50
0.0
 51
69.9311110796377
  0
LINE
  5
76B8C
330
1F
100
AcDbEntity
  8
仮想線
100
AcDbLine
 10
3367.785747072429
 20
-426.0781835805209
 30
0.0
 11
3375.785495443387
 21
-426.0783173465618
 31
0.0
  0
LINE
  5
76B8D
330
1F
100
AcDbEntity
  8
仮想線
100
AcDbLine
 10
3367.785505740457
 20
-441.0781835785825
 30
0.0
 11
3375.785469039157
 21
-441.0783173482175
 31
0.0
  0
LINE
  5
76B8E
330
1F
100
AcDbEntity
  8
センター
 48
10.0
100
AcDbLine
 10
3346.535807340224
 20
-433.5777851871845
 30
0.0
 11
3450.285892964412
 21
-433.5794544013705
 31
0.0
  0
LINE
  5
76B8F
330
1F
100
AcDbEntity
  8
KAKURESEN
 48
10.0
100
AcDbLine
 10
3354.568322939698
 20
-454.5779834740892
 30
0.0
 11
3450.785561513641
 21
-454.5794393786637
 31
0.0
  0
LINE
  5
76B91
102
{ACAD_REACTORS
330
76DA0
102
}
330
1F
100
AcDbEntity
  8
外形１
 48
30.0
100
AcDbLine
 10
3339.493714593152
 20
-454.3802087115147
 30
0.0
 11
3340.975660212779
 21
-454.6262932379901
 31
0.0
  0
LINE
  5
76B94
330
1F
100
AcDbEntity
  8
仮想線
100
AcDbLine
 10
3354.785787294556
 20
-417.5781753389229
 30
0.0
 11
3354.785787294556
 21
-423.5781753389229
 31
0.0
  0
LINE
  5
76B95
330
1F
100
AcDbEntity
  8
仮想線
100
AcDbLine
 10
3367.785787294557
 20
-417.5781753389229
 30
0.0
 11
3354.785787294556
 21
-417.5781753389229
 31
0.0
  0
LINE
  5
76B96
330
1F
100
AcDbEntity
  8
仮想線
100
AcDbLine
 10
3367.785787294557
 20
-423.5781753389229
 30
0.0
 11
3367.785787294557
 21
-417.5781753389229
 31
0.0
  0
LINE
  5
76B97
330
1F
100
AcDbEntity
  8
仮想線
100
AcDbLine
 10
3367.785465518593
 20
-443.5781753363348
 30
0.0
 11
3367.785787294557
 21
-423.5781753389229
 31
0.0
  0
LINE
  5
76B98
330
1F
100
AcDbEntity
  8
仮想線
100
AcDbLine
 10
3343.286054181212
 20
-443.5777597492573
 30
0.0
 11
3367.785465518593
 21
-443.5781753363348
 31
0.0
  0
LINE
  5
76B99
330
1F
100
AcDbEntity
  8
仮想線
100
AcDbLine
 10
3344.785575990374
 20
-423.5778573913689
 30
0.0
 11
3367.785787294557
 21
-423.5781753389229
 31
0.0
  0
LINE
  5
76B9A
330
1F
100
AcDbEntity
  8
仮想線
100
AcDbLine
 10
3344.785575990374
 20
-423.5778573913689
 30
0.0
 11
3343.286054181212
 21
-443.5777597492573
 31
0.0
  0
LINE
  5
76BDB
330
1F
100
AcDbEntity
  8
仮想線
100
AcDbLine
 10
3375.785498963951
 20
-424.078317346341
 30
0.0
 11
3375.785465518593
 21
-443.0783173484383
 31
0.0
  0
LINE
  5
76BDC
330
1F
100
AcDbEntity
  8
仮想線
100
AcDbLine
 10
3375.785465518593
 20
-443.0783173484383
 30
0.0
 11
3385.785540758766
 21
-443.0784845625071
 31
0.0
  0
LINE
  5
76BDD
330
1F
100
AcDbEntity
  8
仮想線
100
AcDbLine
 10
3375.785498963951
 20
-424.078317346341
 30
0.0
 11
3385.78560764389
 21
-424.0784845609689
 31
0.0
  0
LINE
  5
76BDE
330
1F
100
AcDbEntity
  8
KAKURESEN
 48
10.0
100
AcDbLine
 10
3420.785543338141
 20
-453.5790338105398
 30
0.0
 11
3440.785543338141
 21
-453.5790338105398
 31
0.0
  0
LINE
  5
76BE0
330
1F
100
AcDbEntity
  8
KAKURESEN
 48
10.0
100
AcDbLine
 10
3420.785543338141
 20
-454.5790338105398
 30
0.0
 11
3440.785543338141
 21
-454.5790338105398
 31
0.0
  0
LINE
  5
76BE1
330
1F
100
AcDbEntity
  8
KAKURESEN
 48
10.0
100
AcDbLine
 10
3420.785543338141
 20
-454.5790338105398
 30
0.0
 11
3440.785543338141
 21
-454.5790338105398
 31
0.0
  0
ARC
  5
76BE4
330
1F
100
AcDbEntity
  8
仮想線
100
AcDbCircle
 10
3412.785574201328
 20
-448.5788984156084
 30
0.0
 40
5.0
100
AcDbArc
 50
179.9999999999967
 51
269.9990898441249
  0
LINE
  5
76BE5
330
1F
100
AcDbEntity
  8
仮想線
100
AcDbLine
 10
3385.785574201328
 20
-419.5784845597817
 30
0.0
 11
3407.785574201329
 21
-419.5788189854027
 31
0.0
  0
LINE
  5
76BE6
330
1F
100
AcDbEntity
  8
仮想線
100
AcDbLine
 10
3385.785574201328
 20
-447.5784845636962
 30
0.0
 11
3407.785574201328
 21
-447.5788189893172
 31
0.0
  0
LINE
  5
76BE7
330
1F
100
AcDbEntity
  8
仮想線
100
AcDbLine
 10
3385.785574201328
 20
-419.5784845597817
 30
0.0
 11
3385.785574201328
 21
-447.5784845636962
 31
0.0
  0
LINE
  5
76BE8
330
1F
100
AcDbEntity
  8
仮想線
100
AcDbLine
 10
3407.785574201329
 20
-406.8966887931298
 30
0.0
 11
3407.785574201328
 21
-448.5788984156084
 31
0.0
  0
LINE
  5
76BE9
330
1F
100
AcDbEntity
  8
仮想線
100
AcDbLine
 10
3412.785494775244
 20
-453.5788984149776
 30
0.0
 11
3442.785479670094
 21
-453.5793749712383
 31
0.0
  0
ARC
  5
76BEA
330
1F
100
AcDbEntity
  8
仮想線
100
AcDbCircle
 10
3370.785574201328
 20
-382.4901405536425
 30
0.0
 40
7.0
100
AcDbArc
 50
180.0
 51
257.1957339347193
  0
ARC
  5
76BEB
330
1F
100
AcDbEntity
  8
外形１
 48
10.0
100
AcDbCircle
 10
3429.28555853879
 20
-413.3918319989935
 30
0.0
 40
5.6875
100
AcDbArc
 50
194.7529189176964
 51
345.2470810823035
  0
LWPOLYLINE
  5
76BEC
330
1F
100
AcDbEntity
  8
外形１
 48
10.0
100
AcDbPolyline
 90
        2
 70
     0
 43
0.0
 10
3423.785558538791
 20
-415.0901607772756
 10
3423.785558538791
 20
-373.5685032207115
  0
LWPOLYLINE
  5
76BED
330
1F
100
AcDbEntity
  8
外形１
 48
10.0
100
AcDbPolyline
 90
        2
 70
     0
 43
0.0
 10
3434.78555853879
 20
-373.5685032207115
 10
3434.78555853879
 20
-415.0901607772756
  0
ARC
  5
76BEE
330
1F
100
AcDbEntity
  8
外形１
 48
10.0
100
AcDbCircle
 10
3429.28555853879
 20
-375.0168319989935
 30
0.0
 40
5.6875
100
AcDbArc
 50
14.75291891769647
 51
165.2470810823035
  0
LINE
  5
76BEF
330
1F
100
AcDbEntity
  8
仮想線
100
AcDbLine
 10
3369.234226476205
 20
-389.3160705441827
 30
0.0
 11
3404.5013228235
 21
-402.200285204689
 31
0.0
  0
ARC
  5
76BF0
330
1F
100
AcDbEntity
  8
仮想線
100
AcDbCircle
 10
3440.785573420997
 20
-313.5789347504282
 30
0.0
 40
7.0
100
AcDbArc
 50
359.9999936129072
 51
90.0
  0
LINE
  5
76BF1
330
1F
100
AcDbEntity
  8
外形１
100
AcDbLine
 10
3450.785576932364
 20
-274.5788187115971
 30
0.0
 11
3451.785576932364
 21
-274.578818823073
 31
0.0
  0
DIMENSION
  5
76BF2
330
1F
100
AcDbEntity
  8
寸法
100
AcDbDimension
  2
*D6
 10
3451.785576932364
 20
-235.8181106673611
 30
0.0
 11
3405.785576932365
 21
-228.8181106673611
 31
0.0
 70
    32
 71
     5
 42
91.99999999999908
  3
STANDARD-2
100
AcDbAlignedDimension
 13
3359.785576932365
 23
-270.5788189901548
 33
0.0
 14
3451.785576932364
 24
-274.578818823073
 34
0.0
100
AcDbRotatedDimension
1001
ACAD
1000
DSTYLE
1002
{
1070
    40
1040
1.0
1002
}
  0
LINE
  5
76BF3
330
1F
100
AcDbEntity
  8
外形１
100
AcDbLine
 10
3204.793972759507
 20
-270.5788189901548
 30
0.0
 11
3203.793972759507
 21
-270.5788189901548
 31
0.0
  0
LINE
  5
76BF4
330
1F
100
AcDbEntity
  8
KAKURESEN
 48
10.0
100
AcDbLine
 10
3203.793972759507
 20
-274.578818823073
 30
0.0
 11
3201.293972759507
 21
-274.578818823073
 31
0.0
  0
LINE
  5
76BF7
330
1F
100
AcDbEntity
  8
仮想線
100
AcDbLine
 10
3389.785573811162
 20
-306.5789347504282
 30
0.0
 11
3389.785573811162
 21
-283.5789347504282
 31
0.0
  0
LINE
  5
76BF8
330
1F
100
AcDbEntity
  8
仮想線
100
AcDbLine
 10
3421.785573811162
 20
-306.5789347504282
 30
0.0
 11
3421.785573811162
 21
-283.5789347504282
 31
0.0
  0
ARC
  5
76BF9
330
1F
100
AcDbEntity
  8
仮想線
100
AcDbCircle
 10
3370.785574201328
 20
-313.5789347504283
 30
0.0
 40
7.0
100
AcDbArc
 50
90.0
 51
180.0
  0
LINE
  5
76BFD
330
1F
100
AcDbEntity
  8
仮想線
100
AcDbLine
 10
3370.785574201328
 20
-306.5789347504283
 30
0.0
 11
3440.785573420997
 21
-306.5789347504282
 31
0.0
  0
LINE
  5
76BFE
102
{ACAD_REACTORS
330
76DA0
102
}
330
1F
100
AcDbEntity
  8
外形１
 48
30.0
100
AcDbLine
 10
3364.263950474217
 20
-270.578818990155
 30
0.0
 11
3447.285576932364
 21
-270.5788189901547
 31
0.0
  0
LINE
  5
76BFF
102
{ACAD_REACTORS
330
76DA0
102
}
330
1F
100
AcDbEntity
  8
外形１
 48
30.0
100
AcDbLine
 10
3364.263950474217
 20
-272.0788189901547
 30
0.0
 11
3447.287246134266
 21
-272.0788189901549
 31
0.0
  0
LINE
  5
76C01
330
1F
100
AcDbEntity
  8
細線
100
AcDbLine
 10
3364.268105979537
 20
-270.5788189901548
 30
0.0
 11
3359.785576932365
 21
-270.5788189901548
 31
0.0
  0
LINE
  5
76C02
330
1F
100
AcDbEntity
  8
細線
100
AcDbLine
 10
3359.785576932365
 20
-270.5788189901548
 30
0.0
 11
3359.285524461924
 21
-275.1082376045831
 31
0.0
  0
LINE
  5
76C03
330
1F
100
AcDbEntity
  8
仮想線
100
AcDbLine
 10
3389.785573811162
 20
-283.5789347504282
 30
0.0
 11
3421.785573811162
 21
-283.5789347504282
 31
0.0
  0
LINE
  5
76C05
102
{ACAD_REACTORS
330
76DA0
102
}
330
1F
100
AcDbEntity
  8
KAKURESEN
 48
10.0
100
AcDbLine
 10
3433.785577211054
 20
-273.0788189901548
 30
0.0
 11
3447.283103545486
 21
-273.0788189901548
 31
0.0
  0
LINE
  5
76C06
330
1F
100
AcDbEntity
  8
KAKURESEN
 48
10.0
100
AcDbLine
 10
3448.786756985712
 20
-276.5770460075291
 30
0.0
 11
3448.786756093707
 21
-288.0788188788107
 31
0.0
  0
LINE
  5
76C07
330
1F
100
AcDbEntity
  8
KAKURESEN
 48
10.0
100
AcDbLine
 10
3449.785574201328
 20
-288.0788189901548
 30
0.0
 11
3448.785575817607
 21
-288.0788188786791
 31
0.0
  0
ARC
  5
76C08
330
1F
100
AcDbEntity
  8
KAKURESEN
 48
10.0
100
AcDbCircle
 10
3447.284396656264
 20
-274.5788184327762
 30
0.0
 40
2.5
100
AcDbArc
 50
143.1301183218779
 51
90.03825980909205
  0
CIRCLE
  5
76C09
330
1F
100
AcDbEntity
  8
KAKURESEN
 48
10.0
100
AcDbCircle
 10
3447.285576932364
 20
-274.5788184329078
 30
0.0
 40
1.5
  0
ARC
  5
76C0A
330
1F
100
AcDbEntity
  8
外形１
100
AcDbCircle
 10
3447.285576932364
 20
-274.5788184329078
 30
0.0
 40
2.5
100
AcDbArc
 50
0.0
 51
90.03825980909205
  0
LINE
  5
76C0B
102
{ACAD_REACTORS
330
76DA0
102
}
330
1F
100
AcDbEntity
  8
外形１
100
AcDbLine
 10
3433.785577211054
 20
-272.0788189901548
 30
0.0
 11
3433.785577211054
 21
-273.0281714037249
 31
0.0
  0
LINE
  5
76C0C
330
1F
100
AcDbEntity
  8
KAKURESEN
 48
10.0
100
AcDbLine
 10
3433.785577211054
 20
-273.0281714037249
 30
0.0
 11
3433.785577211054
 21
-273.0788189901548
 31
0.0
  0
LINE
  5
76C0D
102
{ACAD_REACTORS
330
76DA0
102
}
330
1F
100
AcDbEntity
  8
外形１
100
AcDbLine
 10
3447.287246134266
 20
-272.0788189901549
 30
0.0
 11
3447.285576932364
 21
-270.5788189901548
 31
0.0
  0
LWPOLYLINE
  5
76C0E
330
1F
100
AcDbEntity
  8
KAKURESEN
 48
10.0
100
AcDbPolyline
 90
        4
 70
     1
 43
0.0
 10
3449.785574201328
 20
-274.5788189901548
 10
3450.785574201328
 20
-274.5788189901548
 10
3450.785574201328
 20
-288.0788189901548
 10
3449.785574201328
 20
-288.0788189901548
  0
LINE
  5
76C0F
330
1F
100
AcDbEntity
  8
仮想線
100
AcDbLine
 10
3450.785576932364
 20
-274.5788187115971
 30
0.0
 11
3449.785574201328
 21
-274.5788187115971
 31
0.0
  0
LINE
  5
76C10
330
1F
100
AcDbEntity
  8
仮想線
100
AcDbLine
 10
3449.785576375118
 20
-274.578818432908
 30
0.0
 11
3451.285576375118
 21
-274.578818432908
 31
0.0
  0
LINE
  5
76C11
330
1F
100
AcDbEntity
  8
仮想線
100
AcDbLine
 10
3448.785576375117
 20
-272.5788180149727
 30
0.0
 11
3448.785576375117
 21
-264.5788187115969
 31
0.0
  0
LINE
  5
76C12
330
1F
100
AcDbEntity
  8
仮想線
100
AcDbLine
 10
3449.785576375118
 20
-264.5788187115969
 30
0.0
 11
3448.785576375117
 21
-264.5788187115969
 31
0.0
  0
LINE
  5
76C13
330
1F
100
AcDbEntity
  8
仮想線
100
AcDbLine
 10
3147.025185123631
 20
-189.0676108797616
 30
0.0
 11
3150.560719029564
 21
-192.6031447856945
 31
0.0
  0
LINE
  5
76C14
330
1F
100
AcDbEntity
  8
仮想線
100
AcDbLine
 10
3150.562760395382
 20
-189.0676108797616
 30
0.0
 11
3147.027226489449
 21
-192.6031447856945
 31
0.0
  0
ARC
  5
76C15
330
1F
100
AcDbEntity
  8
仮想線
100
AcDbCircle
 10
3194.293972759507
 20
-183.5812702335793
 30
0.0
 40
7.0
100
AcDbArc
 50
270.0
 51
0.0
  0
LINE
  5
76C16
330
1F
100
AcDbEntity
  8
KAKURESEN
 48
10.0
100
AcDbLine
 10
3175.71979679518
 20
-202.8358516666596
 30
0.0
 11
3204.793972759507
 21
-202.8358516666596
 31
0.0
  0
LINE
  5
76C17
330
1F
100
AcDbEntity
  8
仮想線
100
AcDbLine
 10
3138.795006462332
 20
-209.5812661100182
 30
0.0
 11
3158.794934253009
 21
-209.5809896374227
 31
0.0
  0
LINE
  5
76C18
330
1F
100
AcDbEntity
  8
仮想線
100
AcDbLine
 10
3158.794954985809
 20
-211.080792888281
 30
0.0
 11
3138.795031899022
 21
-211.080792888281
 31
0.0
  0
LINE
  5
76C19
330
1F
100
AcDbEntity
  8
仮想線
100
AcDbLine
 10
3138.795031899022
 20
-211.080792888281
 30
0.0
 11
3138.794684162638
 21
-190.5812702335793
 31
0.0
  0
LINE
  5
76C1A
330
1F
100
AcDbEntity
  8
仮想線
100
AcDbLine
 10
3164.794616309299
 20
-199.5810563600199
 30
0.0
 11
3158.794616309299
 21
-199.5810563600199
 31
0.0
  0
LINE
  5
76C1B
330
1F
100
AcDbEntity
  8
仮想線
100
AcDbLine
 10
3164.794616309299
 20
-190.5812702335793
 30
0.0
 11
3164.794616309299
 21
-199.5810563600199
 31
0.0
  0
LINE
  5
76C1C
330
1F
100
AcDbEntity
  8
仮想線
100
AcDbLine
 10
3158.794954985809
 20
-211.080792888281
 30
0.0
 11
3158.794671606975
 21
-190.5812702335794
 31
0.0
  0
LINE
  5
76C1D
330
1F
100
AcDbEntity
  8
外形１
100
AcDbLine
 10
3203.793972759507
 20
-106.5812702335798
 30
0.0
 11
3203.793972759507
 21
-110.081265483887
 31
0.0
  0
ARC
  5
76C1E
330
1F
100
AcDbEntity
  8
仮想線
100
AcDbCircle
 10
3194.293972759507
 20
-113.5812702335805
 30
0.0
 40
7.0
100
AcDbArc
 50
0.0
 51
90.0
  0
LINE
  5
76C1F
330
1F
100
AcDbEntity
  8
外形１
100
AcDbLine
 10
3204.793972759507
 20
-105.5812667222128
 30
0.0
 11
3204.793972759507
 21
-110.081265483887
 31
0.0
  0
LWPOLYLINE
  5
76C20
330
1F
100
AcDbEntity
  8
仮想線
100
AcDbPolyline
 90
        4
 70
     1
 43
0.0
 10
3447.785574191257
 20
-326.5789347504283
 10
3450.785574191257
 20
-326.5789347504283
 10
3450.785574191257
 20
-406.5789347504282
 10
3447.785574191257
 20
-406.5789347504282
  0
ARC
  5
76C22
102
{ACAD_REACTORS
330
76DA0
102
}
330
1F
100
AcDbEntity
  8
外形１
 48
30.0
100
AcDbCircle
 10
3364.263950474217
 20
-275.578818990155
 30
0.0
 40
5.0
100
AcDbArc
 50
90.0
 51
173.7000000000012
  0
ARC
  5
76C23
102
{ACAD_REACTORS
330
76DA0
102
}
330
1F
100
AcDbEntity
  8
外形１
 48
30.0
100
AcDbCircle
 10
3364.263950474217
 20
-275.578818990155
 30
0.0
 40
3.5
100
AcDbArc
 50
90.0
 51
173.7000000000012
  0
LINE
  5
76C24
330
1F
100
AcDbEntity
  8
仮想線
100
AcDbLine
 10
3449.785576375118
 20
-191.55719197476
 30
0.0
 11
3449.785576375118
 21
-274.5804876348094
 31
0.0
  0
LINE
  5
76C25
330
1F
100
AcDbEntity
  8
仮想線
100
AcDbLine
 10
3451.285576375118
 20
-191.55719197476
 30
0.0
 11
3451.285576375118
 21
-274.5788184329073
 31
0.0
  0
ARC
  5
76C26
330
1F
100
AcDbEntity
  8
仮想線
100
AcDbCircle
 10
3446.285576375117
 20
-191.5571919747598
 30
0.0
 40
3.5
100
AcDbArc
 50
0.0
 51
83.70000000000484
  0
ARC
  5
76C27
330
1F
100
AcDbEntity
  8
仮想線
100
AcDbCircle
 10
3446.285576375117
 20
-191.5571919747598
 30
0.0
 40
5.0
100
AcDbArc
 50
0.0
 51
83.70000000000484
  0
LINE
  5
76C28
330
1F
100
AcDbEntity
  8
仮想線
100
AcDbLine
 10
3446.669646463938
 20
-188.0783286306665
 30
0.0
 11
3267.238102127282
 21
-168.2689017133217
 31
0.0
  0
LINE
  5
76C29
330
1F
100
AcDbEntity
  8
仮想線
100
AcDbLine
 10
3446.834247930573
 20
-186.5873871974842
 30
0.0
 11
3267.402703593919
 21
-166.7779602801384
 31
0.0
  0
LINE
  5
76C2A
330
1F
100
AcDbEntity
  8
仮想線
100
AcDbLine
 10
3267.4307098461
 20
-166.7810521991645
 30
0.0
 11
3267.238102127282
 21
-168.2689017133217
 31
0.0
  0
LINE
  5
76C2B
330
1F
100
AcDbEntity
  8
外形１
 48
30.0
100
AcDbLine
 10
3365.311348160035
 20
-277.8747344188004
 30
0.0
 11
3447.331036982455
 21
-272.0694322509065
 31
0.0
  0
ARC
  5
76C2C
330
1F
100
AcDbEntity
  8
外形１
100
AcDbCircle
 10
3365.54008618363
 20
-281.3672861413245
 30
0.0
 40
3.5
100
AcDbArc
 50
93.9999999999965
 51
177.7528221542919
  0
LINE
  5
76C2D
330
1F
100
AcDbEntity
  8
外形１
 48
30.0
100
AcDbLine
 10
3362.042777792812
 20
-281.2300490490191
 30
0.0
 11
3354.530973482868
 21
-455.5779829088241
 31
0.0
  0
ARC
  5
76C2E
330
1F
100
AcDbEntity
  8
KAKURESEN
 48
10.0
100
AcDbCircle
 10
3148.793972759506
 20
-146.5812702335801
 30
0.0
 40
20.0
100
AcDbArc
 50
5.215908570455905
 51
174.7840914295441
  0
ARC
  5
76C2F
330
1F
100
AcDbEntity
  8
外形１
 48
30.0
100
AcDbCircle
 10
3092.793972759507
 20
-115.081265483887
 30
0.0
 40
5.0
100
AcDbArc
 50
90.0
 51
180.0
  0
ARC
  5
76C30
330
1F
100
AcDbEntity
  8
外形１
100
AcDbCircle
 10
3204.793972759507
 20
-115.081265483887
 30
0.0
 40
5.0
100
AcDbArc
 50
0.0
 51
90.0
  0
LINE
  5
76C31
330
1F
100
AcDbEntity
  8
KAKURESEN
 48
10.0
100
AcDbLine
 10
3170.702875059713
 20
-146.5812702335797
 30
0.0
 11
3196.793972759506
 21
-146.5812702335797
 31
0.0
  0
ARC
  5
76C32
330
1F
100
AcDbEntity
  8
KAKURESEN
 48
10.0
100
AcDbCircle
 10
3196.793972759506
 20
-144.5812702335797
 30
0.0
 40
2.0
100
AcDbArc
 50
270.0
 51
0.0
  0
LINE
  5
76C33
330
1F
100
AcDbEntity
  8
KAKURESEN
 48
10.0
100
AcDbLine
 10
3198.793972759506
 20
-144.5812702335797
 30
0.0
 11
3198.793972759507
 21
-106.5812702335797
 31
0.0
  0
LINE
  5
76C34
330
1F
100
AcDbEntity
  8
KAKURESEN
 48
10.0
100
AcDbLine
 10
3198.793972759507
 20
-106.5812702335797
 30
0.0
 11
3098.793972759507
 21
-106.5812702335797
 31
0.0
  0
LINE
  5
76C35
330
1F
100
AcDbEntity
  8
KAKURESEN
 48
10.0
100
AcDbLine
 10
3098.793972759507
 20
-106.5812702335797
 30
0.0
 11
3098.793972759507
 21
-144.5812702335797
 31
0.0
  0
ARC
  5
76C36
330
1F
100
AcDbEntity
  8
KAKURESEN
 48
10.0
100
AcDbCircle
 10
3100.793972759507
 20
-144.5812702335797
 30
0.0
 40
2.0
100
AcDbArc
 50
180.0
 51
270.0
  0
LINE
  5
76C37
330
1F
100
AcDbEntity
  8
KAKURESEN
 48
10.0
100
AcDbLine
 10
3100.793972759507
 20
-146.5812702335797
 30
0.0
 11
3126.8850704593
 21
-146.5812702335797
 31
0.0
  0
ARC
  5
76C38
330
1F
100
AcDbEntity
  8
KAKURESEN
 48
10.0
100
AcDbCircle
 10
3126.8850704593
 20
-144.5812702335797
 30
0.0
 40
2.0
100
AcDbArc
 50
270.0
 51
354.7840914295441
  0
ARC
  5
76C39
330
1F
100
AcDbEntity
  8
KAKURESEN
 48
10.0
100
AcDbCircle
 10
3170.702875059713
 20
-144.5812702335797
 30
0.0
 40
2.0
100
AcDbArc
 50
185.2159085704559
 51
270.0
  0
ARC
  5
76C3A
330
1F
100
AcDbEntity
  8
KAKURESEN
 48
10.0
100
AcDbCircle
 10
3121.868148723834
 20
-200.8358516666596
 30
0.0
 40
2.0
100
AcDbArc
 50
270.0
 51
355.7519773332709
  0
ARC
  5
76C3B
330
1F
100
AcDbEntity
  8
KAKURESEN
 48
10.0
100
AcDbCircle
 10
3175.71979679518
 20
-200.8358516666596
 30
0.0
 40
2.0
100
AcDbArc
 50
184.2480226667291
 51
270.0
  0
LINE
  5
76C3C
330
1F
100
AcDbEntity
  8
KAKURESEN
 48
10.0
100
AcDbLine
 10
3123.862654207958
 20
-190.9839998148077
 30
0.0
 11
3123.862654207958
 21
-200.9839998148077
 31
0.0
  0
LINE
  5
76C3D
330
1F
100
AcDbEntity
  8
KAKURESEN
 48
10.0
100
AcDbLine
 10
3173.725291311055
 20
-190.9839998148077
 30
0.0
 11
3173.725291311056
 21
-200.9839998148077
 31
0.0
  0
LINE
  5
76C3E
102
{ACAD_REACTORS
330
76D9E
102
}
330
1F
100
AcDbEntity
  8
仮想線
  6
HIDDEN2
 48
20.0
100
AcDbLine
 10
3189.793972759507
 20
-435.8244379759379
 30
0.0
 11
3189.793972759507
 21
-425.8244379759379
 31
0.0
  0
LINE
  5
76C3F
102
{ACAD_REACTORS
330
76D9E
102
}
330
1F
100
AcDbEntity
  8
仮想線
 48
10.0
100
AcDbLine
 10
3183.793972759507
 20
-435.8244379759379
 30
0.0
 11
3201.793972759507
 21
-435.8244379759379
 31
0.0
  0
LINE
  5
76C40
102
{ACAD_REACTORS
330
76D9E
102
}
330
1F
100
AcDbEntity
  8
仮想線
 48
10.0
100
AcDbLine
 10
3201.793972759507
 20
-425.8244379759379
 30
0.0
 11
3183.793972759507
 21
-425.8244379759379
 31
0.0
  0
LINE
  5
76C41
102
{ACAD_REACTORS
330
76D9E
102
}
330
1F
100
AcDbEntity
  8
仮想線
 48
10.0
100
AcDbLine
 10
3183.793972759507
 20
-425.8244379759379
 30
0.0
 11
3183.793972759507
 21
-435.8244379759379
 31
0.0
  0
LINE
  5
76C42
102
{ACAD_REACTORS
330
76D9E
102
}
330
1F
100
AcDbEntity
  8
仮想線
 48
10.0
100
AcDbLine
 10
3201.793972759507
 20
-435.8244379759379
 30
0.0
 11
3201.793972759507
 21
-425.8244379759379
 31
0.0
  0
LINE
  5
76C43
102
{ACAD_REACTORS
330
76D9E
102
}
330
1F
100
AcDbEntity
  8
仮想線
 48
10.0
100
AcDbLine
 10
3199.793972759506
 20
-435.8244379759379
 30
0.0
 11
3199.793972759506
 21
-425.8244379759379
 31
0.0
  0
LWPOLYLINE
  5
76C4D
330
1F
100
AcDbEntity
  8
寸法
100
AcDbPolyline
 90
        8
 70
     1
 43
0.0
 10
3100.793972759507
 20
-290.5788189901547
 10
3196.793972759508
 20
-290.5788189901547
 42
-0.4142135623730951
 10
3198.793972759507
 20
-292.5788189901547
 10
3198.793972759507
 20
-303.5788189901547
 42
-0.4142135623730951
 10
3196.793972759508
 20
-305.5788189901547
 10
3100.793972759507
 20
-305.5788189901546
 42
-0.4142135623730951
 10
3098.793972759507
 20
-303.5788189901546
 10
3098.793972759507
 20
-292.5788189901547
 42
-0.4142135623730951
  0
LWPOLYLINE
  5
76C4E
330
1F
100
AcDbEntity
  8
寸法
100
AcDbPolyline
 90
        8
 70
     1
 43
0.0
 10
3112.793972759507
 20
-327.5788189901545
 10
3144.793972759508
 20
-327.5788189901545
 42
-0.4142135623730951
 10
3148.793972759508
 20
-331.5788189901546
 10
3148.793972759508
 20
-393.5788189901546
 42
-0.4142135623730951
 10
3144.793972759508
 20
-397.5788189901546
 10
3112.793972759507
 20
-397.5788189901546
 42
-0.4142135623730951
 10
3108.793972759507
 20
-393.5788189901546
 10
3108.793972759507
 20
-331.5788189901546
 42
-0.4142135623730951
  0
LWPOLYLINE
  5
76C4F
330
1F
100
AcDbEntity
  8
寸法
100
AcDbPolyline
 90
        8
 70
     1
 43
0.0
 10
3184.793972759508
 20
-327.5788189901545
 10
3152.793972759508
 20
-327.5788189901545
 42
0.4142135623730951
 10
3148.793972759508
 20
-331.5788189901546
 10
3148.793972759508
 20
-393.5788189901546
 42
0.4142135623730951
 10
3152.793972759508
 20
-397.5788189901546
 10
3184.793972759508
 20
-397.5788189901546
 42
0.4142135623730951
 10
3188.793972759507
 20
-393.5788189901546
 10
3188.793972759507
 20
-331.5788189901546
 42
0.4142135623730951
  0
LWPOLYLINE
  5
76C50
330
1F
100
AcDbEntity
  8
寸法
100
AcDbPolyline
 90
        8
 70
     1
 43
0.0
 10
3130.293972759507
 20
-414.5788189901548
 10
3167.293972759507
 20
-414.5788189901548
 42
-0.4142135623730951
 10
3171.293972759507
 20
-418.5788189901548
 10
3171.293972759507
 20
-445.5788189901547
 42
-0.4142135623730951
 10
3167.293972759507
 20
-449.5788189901547
 10
3130.293972759507
 20
-449.5788189901547
 42
-0.4142135623730951
 10
3126.293972759507
 20
-445.5788189901547
 10
3126.293972759507
 20
-418.5788189901548
 42
-0.4142135623730951
  0
LINE
  5
76C54
330
1F
100
AcDbEntity
  8
外形１
 48
10.0
100
AcDbLine
 10
2918.173311755858
 20
-141.1727668771005
 30
0.0
 11
2963.673311755858
 21
-167.4422041252284
 31
0.0
  0
LINE
  5
76C55
330
1F
100
AcDbEntity
  8
外形１
 48
10.0
100
AcDbLine
 10
2916.873311726721
 20
-141.2305019040194
 30
0.0
 11
2962.823311754838
 21
-167.7597467730867
 31
0.0
  0
LINE
  5
76C56
330
1F
100
AcDbEntity
  8
外形１
 48
10.0
100
AcDbLine
 10
2913.873311726721
 20
-141.2305019040194
 30
0.0
 11
2879.000985832167
 21
-161.3640486633316
 31
0.0
  0
LINE
  5
76C57
330
1F
100
AcDbEntity
  8
外形１
 48
10.0
100
AcDbLine
 10
2924.998311755858
 20
-286.0212257861371
 30
0.0
 11
2924.998311755858
 21
-228.5541726748778
 31
0.0
  0
LINE
  5
76C58
330
1F
100
AcDbEntity
  8
外形１
 48
10.0
100
AcDbLine
 10
2963.673311755858
 20
-167.4422041252284
 30
0.0
 11
2963.673311755858
 21
-263.6922041252284
 31
0.0
  0
LINE
  5
76C59
330
1F
100
AcDbEntity
  8
外形１
 48
10.0
100
AcDbLine
 10
2927.658740187299
 20
-192.8812050882326
 30
0.0
 11
2920.531011930281
 21
-288.4549916536451
 31
0.0
  0
LINE
  5
76C5A
330
1F
100
AcDbEntity
  8
外形１
 48
10.0
100
AcDbLine
 10
2877.260678776083
 20
-164.1348364927408
 30
0.0
 11
2870.095473441014
 21
-260.2111430939043
 31
0.0
  0
LINE
  5
76C5B
330
1F
100
AcDbEntity
  8
外形１
 48
10.0
100
AcDbLine
 10
2926.960678776082
 20
-192.8291448714654
 30
0.0
 11
2919.832950519064
 21
-288.4029314368778
 31
0.0
  0
LINE
  5
76C5C
330
1F
100
AcDbEntity
  8
外形１
 48
10.0
100
AcDbLine
 10
2871.587165203372
 20
-263.0323345199746
 30
0.0
 11
2917.587104637885
 21
-289.5904119351961
 31
0.0
  0
LINE
  5
76C5D
330
1F
100
AcDbEntity
  8
外形１
 48
10.0
100
AcDbLine
 10
2924.998311755858
 20
-286.0212257861371
 30
0.0
 11
2920.889437048996
 21
-283.648965868064
 31
0.0
  0
LINE
  5
76C5E
330
1F
100
AcDbEntity
  8
外形１
 48
10.0
100
AcDbLine
 10
2963.673311755858
 20
-263.6922041252284
 30
0.0
 11
2924.998311755858
 21
-286.0212257861371
 31
0.0
  0
LINE
  5
76C5F
330
1F
100
AcDbEntity
  8
外形１
 48
10.0
100
AcDbLine
 10
2918.241440238686
 20
-289.7883201621334
 30
0.0
 11
2918.939501649902
 21
-289.8403803789005
 31
0.0
  0
ELLIPSE
  5
76C60
330
1F
100
AcDbEntity
  8
外形１
 48
10.0
100
AcDbEllipse
 10
2950.788030218935
 20
-242.7194075958551
 30
0.0
 11
1.232481727719545
 21
4.436193335950565
 31
0.0
210
0.0
220
0.0
230
1.0
 40
0.6461438130994789
 41
1.895961582274229
 42
4.732013384093312
  0
LINE
  5
76C61
330
1F
100
AcDbEntity
  8
外形１
 48
10.0
100
AcDbLine
 10
2953.678082327315
 20
-226.390674331221
 30
0.0
 11
2953.678082327315
 21
-243.3819882920285
 31
0.0
  0
LINE
  5
76C62
330
1F
100
AcDbEntity
  8
外形１
 48
10.0
100
AcDbLine
 10
2947.678082327314
 20
-226.390674331221
 30
0.0
 11
2947.678082327314
 21
-243.3819882920285
 31
0.0
  0
ELLIPSE
  5
76C63
330
1F
100
AcDbEntity
  8
外形１
 48
10.0
100
AcDbEllipse
 10
2950.443948310777
 20
-227.3451677841182
 30
0.0
 11
-1.879978185028052
 21
-4.047557945758218
 31
0.0
210
0.0
220
0.0
230
-1.0
 40
0.6536496919959807
 41
1.503647555976643
 42
4.178704257322306
  0
LINE
  5
76C64
330
1F
100
AcDbEntity
  8
外形１
 48
10.0
100
AcDbLine
 10
2880.412116602695
 20
-164.0491022764914
 30
0.0
 11
2924.862116602694
 21
-189.7123217419704
 31
0.0
  0
ARC
  5
76C65
330
1F
100
AcDbEntity
  8
外形１
 48
10.0
100
AcDbCircle
 10
2880.750985832167
 20
-164.395137576577
 30
0.0
 40
3.5
100
AcDbArc
 50
119.9999999999989
 51
175.7348752597809
  0
LINE
  5
76C66
330
1F
100
AcDbEntity
  8
外形１
 48
10.0
100
AcDbLine
 10
2963.673311755858
 20
-167.4422041252284
 30
0.0
 11
2963.673311755858
 21
-168.2504945020943
 31
0.0
  0
LINE
  5
76C67
330
1F
100
AcDbEntity
  8
外形１
 48
10.0
100
AcDbLine
 10
2963.673311755858
 20
-167.4422041252284
 30
0.0
 11
2962.973311755858
 21
-167.8463493136613
 31
0.0
  0
ARC
  5
76C68
330
1F
100
AcDbEntity
  8
外形１
 48
10.0
100
AcDbCircle
 10
2930.450985832166
 20
-193.0894459553016
 30
0.0
 40
2.799999999999999
100
AcDbArc
 50
119.9999999999989
 51
175.7348752597809
  0
LINE
  5
76C69
330
1F
100
AcDbEntity
  8
外形１
 48
10.0
100
AcDbLine
 10
2962.823311755178
 20
-171.1661133763672
 30
0.0
 11
2929.050985832166
 21
-190.6645748247052
 31
0.0
  0
LINE
  5
76C6A
330
1F
100
AcDbEntity
  8
外形１
 48
10.0
100
AcDbLine
 10
2963.573311755178
 20
-169.0587848787633
 30
0.0
 11
2963.573311755178
 21
-169.8670752556287
 31
0.0
  0
ARC
  5
76C6B
330
1F
100
AcDbEntity
  8
外形１
 48
10.0
100
AcDbCircle
 10
2930.450985832166
 20
-193.0894459553016
 30
0.0
 40
3.5
100
AcDbArc
 50
119.9999999999989
 51
175.7348752597809
  0
LINE
  5
76C6C
330
1F
100
AcDbEntity
  8
外形１
 48
10.0
100
AcDbLine
 10
2962.823311755178
 20
-170.3578229846363
 30
0.0
 11
2928.700985832167
 21
-190.0583570420561
 31
0.0
  0
ARC
  5
76C6D
330
1F
100
AcDbEntity
  8
外形１
 48
10.0
100
AcDbCircle
 10
2873.087165203372
 20
-260.4342583086212
 30
0.0
 40
3.0
100
AcDbArc
 50
175.7348752597809
 51
240.0000000000011
  0
ARC
  5
76C6E
330
1F
100
AcDbEntity
  8
外形１
 48
10.0
100
AcDbCircle
 10
2915.373311726721
 20
-143.8285781153728
 30
0.0
 40
3.0
100
AcDbArc
 50
60.00000000000109
 51
119.9999999999989
  0
ARC
  5
76C6F
330
1F
100
AcDbEntity
  8
外形１
 48
10.0
100
AcDbCircle
 10
2918.337104637885
 20
-288.2913738295195
 30
0.0
 40
1.5
100
AcDbArc
 50
240.0000000000011
 51
355.7348752597809
  0
ARC
  5
76C70
330
1F
100
AcDbEntity
  8
外形１
 48
10.0
100
AcDbCircle
 10
2919.035166049101
 20
-288.3434340462867
 30
0.0
 40
1.5
100
AcDbArc
 50
265.126343075998
 51
355.7348752597809
  0
ARC
  5
76C71
330
1F
100
AcDbEntity
  8
外形１
 48
10.0
100
AcDbCircle
 10
2962.073311755178
 20
-169.0587848789597
 30
0.0
 40
1.5
100
AcDbArc
 50
299.9999999999989
 51
60.00000001499647
  0
ARC
  5
76C72
330
1F
100
AcDbEntity
  8
外形１
 48
10.0
100
AcDbCircle
 10
2962.07331175518
 20
-169.8670752706913
 30
0.0
 40
1.499999999998376
100
AcDbArc
 50
299.9999999999553
 51
0.0000005753488054
  0
LINE
  5
76C73
330
1F
100
AcDbEntity
  8
外形１
 48
10.0
100
AcDbLine
 10
2885.996865816185
 20
-248.683177230691
 30
0.0
 11
2884.769319145842
 21
-265.1430195871777
 31
0.0
  0
LINE
  5
76C74
330
1F
100
AcDbEntity
  8
外形１
 48
10.0
100
AcDbLine
 10
2888.991326991091
 20
-247.0998698996003
 30
0.0
 11
2904.916449415735
 21
-256.2942436183463
 31
0.0
  0
ARC
  5
76C75
330
1F
100
AcDbEntity
  8
外形１
 48
10.0
100
AcDbCircle
 10
2903.683363920298
 20
-276.3669310664485
 30
0.0
 40
2.0
100
AcDbArc
 50
240.0000000000011
 51
355.7348752597939
  0
ARC
  5
76C76
330
1F
100
AcDbEntity
  8
外形１
 48
10.0
100
AcDbCircle
 10
2902.916449415735
 20
-259.758345233484
 30
0.0
 40
4.0
100
AcDbArc
 50
355.7348752597939
 51
60.00000000000109
  0
ARC
  5
76C77
330
1F
100
AcDbEntity
  8
外形１
 48
10.0
100
AcDbCircle
 10
2888.758241495653
 20
-265.4405065401337
 30
0.0
 40
4.0
100
AcDbArc
 50
175.7348752597809
 51
240.0000000000011
  0
LINE
  5
76C78
330
1F
100
AcDbEntity
  8
外形１
 48
10.0
100
AcDbLine
 10
2906.905371765546
 20
-260.0558321864397
 30
0.0
 11
2905.677825095203
 21
-276.5156745429264
 31
0.0
  0
LINE
  5
76C79
330
1F
100
AcDbEntity
  8
外形１
 48
10.0
100
AcDbLine
 10
2886.758241495654
 20
-268.9046081552714
 30
0.0
 11
2902.683363920298
 21
-278.0989818740173
 31
0.0
  0
LINE
  5
76C7A
330
1F
100
AcDbEntity
  8
外形１
 48
10.0
100
AcDbLine
 10
2886.254565655012
 20
-185.6055384416949
 30
0.0
 11
2915.493569807823
 21
-202.4866853601569
 31
0.0
  0
LINE
  5
76C7B
330
1F
100
AcDbEntity
  8
外形１
 48
10.0
100
AcDbLine
 10
2916.714193158845
 20
-195.7618297403024
 30
0.0
 11
2916.24218510155
 21
-202.0908585273843
 31
0.0
  0
ARC
  5
76C7C
330
1F
100
AcDbEntity
  8
外形１
 48
10.0
100
AcDbCircle
 10
2908.778147034816
 20
-214.7753417517482
 30
0.0
 40
4.0
100
AcDbArc
 50
355.7348752597939
 51
60.00000000000109
  0
LINE
  5
76C7D
330
1F
100
AcDbEntity
  8
外形１
 48
10.0
100
AcDbLine
 10
2912.767069384626
 20
-215.072828704704
 30
0.0
 11
2910.713915765732
 21
-242.6030120509921
 31
0.0
  0
LINE
  5
76C7E
330
1F
100
AcDbEntity
  8
外形１
 48
10.0
100
AcDbLine
 10
2910.778147034815
 20
-211.3112401366105
 30
0.0
 11
2903.164448390203
 21
-206.9154699726074
 31
0.0
  0
LINE
  5
76C7F
330
1F
100
AcDbEntity
  8
外形１
 48
10.0
100
AcDbLine
 10
2900.103719998536
 20
-239.7893729651477
 30
0.0
 11
2907.719454590827
 21
-244.1863193820831
 31
0.0
  0
ARC
  5
76C80
330
1F
100
AcDbEntity
  8
外形１
 48
10.0
100
AcDbCircle
 10
2902.105755946213
 20
-236.3264476029418
 30
0.0
 40
4.0
100
AcDbArc
 50
175.7348752597939
 51
240.0000000000011
  0
LINE
  5
76C81
330
1F
100
AcDbEntity
  8
外形１
 48
10.0
100
AcDbLine
 10
2900.169987215297
 20
-208.4987773036984
 30
0.0
 11
2898.116833596402
 21
-236.0289606499861
 31
0.0
  0
ARC
  5
76C82
330
1F
100
AcDbEntity
  8
外形１
 48
10.0
100
AcDbCircle
 10
2902.164448390203
 20
-208.6475207801762
 30
0.0
 40
2.0
100
AcDbArc
 50
60.00000000000109
 51
175.7348752597939
  0
ARC
  5
76C83
330
1F
100
AcDbEntity
  8
外形１
 48
10.0
100
AcDbCircle
 10
2896.177666843343
 20
-235.2132640423853
 30
0.0
 40
2.0
100
AcDbArc
 50
240.0000000000011
 51
355.7348752597939
  0
ARC
  5
76C84
330
1F
100
AcDbEntity
  8
外形１
 48
10.0
100
AcDbCircle
 10
2896.236359287332
 20
-207.5343372196193
 30
0.0
 40
4.0
100
AcDbArc
 50
355.7348752597939
 51
60.00000000000109
  0
LINE
  5
76C85
330
1F
100
AcDbEntity
  8
外形１
 48
10.0
100
AcDbLine
 10
2900.236359287332
 20
-207.5343372196193
 30
0.0
 11
2898.172128018249
 21
-235.3620075188632
 31
0.0
  0
ARC
  5
76C86
330
1F
100
AcDbEntity
  8
外形１
 48
10.0
100
AcDbCircle
 10
2887.991326991091
 20
-248.8319207071691
 30
0.0
 40
2.0
100
AcDbArc
 50
60.00000000000109
 51
175.7348752597809
  0
ARC
  5
76C87
330
1F
100
AcDbEntity
  8
外形１
 48
10.0
100
AcDbCircle
 10
2908.719454590827
 20
-242.4542685745142
 30
0.0
 40
2.0
100
AcDbArc
 50
240.0000000000011
 51
355.7348752597939
  0
ARC
  5
76C88
330
1F
100
AcDbEntity
  8
外形１
 48
10.0
100
AcDbCircle
 10
2889.046114028832
 20
-201.0736461073267
 30
0.0
 40
2.0
100
AcDbArc
 50
60.00000000000109
 51
175.7348752597939
  0
ARC
  5
76C89
330
1F
100
AcDbEntity
  8
外形１
 48
10.0
100
AcDbCircle
 10
2888.987421584843
 20
-228.7525729300922
 30
0.0
 40
4.0
100
AcDbArc
 50
175.7348752597939
 51
240.0000000000011
  0
LINE
  5
76C8A
330
1F
100
AcDbEntity
  8
外形１
 48
10.0
100
AcDbLine
 10
2887.051652853927
 20
-200.9249026308488
 30
0.0
 11
2884.998499235032
 21
-228.4550859771363
 31
0.0
  0
LINE
  5
76C8B
330
1F
100
AcDbEntity
  8
外形１
 48
10.0
100
AcDbLine
 10
2886.987421584843
 20
-232.2166745452299
 30
0.0
 11
2895.177666843343
 21
-236.9453148499541
 31
0.0
  0
LINE
  5
76C8C
330
1F
100
AcDbEntity
  8
外形１
 48
10.0
100
AcDbLine
 10
2890.046114028832
 20
-199.3415952997578
 30
0.0
 11
2898.236359287332
 21
-204.0702356044816
 31
0.0
  0
ARC
  5
76C8D
330
1F
100
AcDbEntity
  8
外形１
 48
10.0
100
AcDbCircle
 10
2915.743569807823
 20
-202.0536726582649
 30
0.0
 40
0.5
100
AcDbArc
 50
240.0000000000011
 51
355.7348752597939
  0
LINE
  5
76C8E
330
1F
100
AcDbEntity
  8
外形１
 48
10.0
100
AcDbLine
 10
2886.977958418582
 20
-177.9402856798164
 30
0.0
 11
2916.216962571392
 21
-194.8214325982791
 31
0.0
  0
ARC
  5
76C8F
330
1F
100
AcDbEntity
  8
外形１
 48
10.0
100
AcDbCircle
 10
2886.727958418581
 20
-178.3732983817084
 30
0.0
 40
0.5
100
AcDbArc
 50
60.00000000000109
 51
175.7348752597939
  0
ARC
  5
76C90
330
1F
100
AcDbEntity
  8
外形１
 48
10.0
100
AcDbCircle
 10
2886.754565655012
 20
-184.7395130379103
 30
0.0
 40
1.0
100
AcDbArc
 50
175.7348752597939
 51
240.0000000000011
  0
LINE
  5
76C91
330
1F
100
AcDbEntity
  8
外形１
 48
10.0
100
AcDbLine
 10
2886.229343124855
 20
-178.336112512589
 30
0.0
 11
2885.757335067559
 21
-184.6651412996715
 31
0.0
  0
ARC
  5
76C92
330
1F
100
AcDbEntity
  8
外形１
 48
10.0
100
AcDbCircle
 10
2915.716962571393
 20
-195.6874580020634
 30
0.0
 40
1.0
100
AcDbArc
 50
355.7348752597939
 51
60.00000000000109
  0
LINE
  5
76EE4
330
1F
100
AcDbEntity
  8
センター
  6
CENTER
 48
10.0
100
AcDbLine
 10
3123.918972759506
 20
-344.5788188230722
 30
0.0
 11
3097.668972759505
 21
-344.5788188230738
 31
0.0
  0
ARC
  5
76EE5
330
1F
100
AcDbEntity
  8
KAKURESEN
 48
10.0
100
AcDbCircle
 10
3110.793972759502
 20
-354.5788188230738
 30
0.0
 40
4.75
100
AcDbArc
 50
121.756863859271
 51
58.24313614066704
  0
LINE
  5
76EE6
330
1F
100
AcDbEntity
  8
センター
  6
CENTER
 48
10.0
100
AcDbLine
 10
3110.793972759506
 20
-328.7557014159411
 30
0.0
 11
3110.793972759506
 21
-360.4019362302044
 31
0.0
  0
LINE
  5
76EE7
330
1F
100
AcDbEntity
  8
KAKURESEN
 48
10.0
100
AcDbLine
 10
3113.293972759506
 20
-344.5788188230729
 30
0.0
 11
3113.293972759507
 21
-350.5399452177255
 31
0.0
  0
ARC
  5
76EE8
330
1F
100
AcDbEntity
  8
KAKURESEN
 48
10.0
100
AcDbCircle
 10
3110.793972759506
 20
-344.5788188230729
 30
0.0
 40
2.5
100
AcDbArc
 50
0.0
 51
180.0
  0
LINE
  5
76EE9
330
1F
100
AcDbEntity
  8
KAKURESEN
 48
10.0
100
AcDbLine
 10
3108.293972759506
 20
-344.5788188230729
 30
0.0
 11
3108.293972759506
 21
-350.5399452177207
 31
0.0
  0
ARC
  5
76EEB
330
1F
100
AcDbEntity
  8
KAKURESEN
 48
10.0
100
AcDbCircle
 10
3186.793972759508
 20
-344.578818823072
 30
0.0
 40
2.5
100
AcDbArc
 50
0.0
 51
180.0
  0
ARC
  5
76EEC
330
1F
100
AcDbEntity
  8
KAKURESEN
 48
10.0
100
AcDbCircle
 10
3186.793972759504
 20
-354.5788188230729
 30
0.0
 40
4.75
100
AcDbArc
 50
121.756863859271
 51
58.24313614066704
  0
LINE
  5
76EED
330
1F
100
AcDbEntity
  8
KAKURESEN
 48
10.0
100
AcDbLine
 10
3189.293972759508
 20
-344.578818823072
 30
0.0
 11
3189.293972759509
 21
-350.5399452177246
 31
0.0
  0
LINE
  5
76EEE
330
1F
100
AcDbEntity
  8
KAKURESEN
 48
10.0
100
AcDbLine
 10
3184.293972759508
 20
-344.578818823072
 30
0.0
 11
3184.293972759508
 21
-350.5399452177198
 31
0.0
  0
LINE
  5
76EEF
330
1F
100
AcDbEntity
  8
センター
  6
CENTER
 48
10.0
100
AcDbLine
 10
3161.918972759507
 20
-414.5788188230713
 30
0.0
 11
3135.668972759506
 21
-414.5788188230729
 31
0.0
  0
LINE
  5
76EF0
330
1F
100
AcDbEntity
  8
KAKURESEN
 48
10.0
100
AcDbLine
 10
3151.293972759507
 20
-414.5788188230719
 30
0.0
 11
3151.293972759507
 21
-420.5399452177245
 31
0.0
  0
ARC
  5
76EF1
330
1F
100
AcDbEntity
  8
KAKURESEN
 48
10.0
100
AcDbCircle
 10
3148.793972759507
 20
-414.5788188230719
 30
0.0
 40
2.5
100
AcDbArc
 50
0.0
 51
180.0
  0
LINE
  5
76EF2
330
1F
100
AcDbEntity
  8
KAKURESEN
 48
10.0
100
AcDbLine
 10
3146.293972759507
 20
-414.5788188230719
 30
0.0
 11
3146.293972759507
 21
-420.5399452177198
 31
0.0
  0
ARC
  5
76EF3
330
1F
100
AcDbEntity
  8
KAKURESEN
 48
10.0
100
AcDbCircle
 10
3148.793972759503
 20
-424.5788188230728
 30
0.0
 40
4.75
100
AcDbArc
 50
121.756863859271
 51
58.24313614066704
  0
LINE
  5
76EF4
330
1F
100
AcDbEntity
  8
センター
  6
CENTER
 48
10.0
100
AcDbLine
 10
3199.918972759508
 20
-344.5788188230714
 30
0.0
 11
3173.668972759507
 21
-344.578818823073
 31
0.0
  0
LINE
  5
76EF5
330
1F
100
AcDbEntity
  8
KAKURESEN
 48
10.0
100
AcDbLine
 10
3204.793972759507
 20
-369.079331998993
 30
0.0
 11
3203.793972759507
 21
-369.079331998993
 31
0.0
  0
LINE
  5
76EF6
330
1F
100
AcDbEntity
  8
KAKURESEN
 48
10.0
100
AcDbLine
 10
3092.793972759507
 20
-366.3793319433858
 30
0.0
 11
3093.793972759507
 21
-366.3793319433858
 31
0.0
  0
DIMENSION
  5
76EFB
330
1F
100
AcDbEntity
  8
寸法
100
AcDbDimension
  2
*D18
 10
3186.793972759507
 20
-321.4978742008162
 30
0.0
 11
3148.793972759506
 21
-314.4978742008162
 31
0.0
 70
    32
 71
     5
 42
76.00000000000091
  3
STANDARD-2
100
AcDbAlignedDimension
 13
3110.793972759506
 23
-360.4019362302044
 33
0.0
 14
3186.793972759507
 24
-360.4019362302044
 34
0.0
100
AcDbRotatedDimension
1001
ACAD
1000
DSTYLE
1002
{
1070
    40
1040
1.0
1002
}
  0
DIMENSION
  5
76EFC
330
1F
100
AcDbEntity
  8
寸法
100
AcDbDimension
  2
*D19
 10
3232.046306593097
 20
-344.578818823073
 30
0.0
 11
3225.046306593096
 21
-309.5788188230725
 31
0.0
 70
    32
 71
     5
 42
70.00000000000006
  3
STANDARD-2
100
AcDbAlignedDimension
 13
3201.293972759507
 23
-274.578818823073
 33
0.0
 14
3199.918972759508
 24
-344.578818823073
 34
0.0
 50
90.0
100
AcDbRotatedDimension
  0
DIMENSION
  5
76EFD
330
1F
100
AcDbEntity
  8
寸法
100
AcDbDimension
  2
*D20
 10
3232.046306593097
 20
-414.5788188230713
 30
0.0
 11
3225.046306593096
 21
-379.5788188230708
 31
0.0
 70
    32
 71
     5
 42
69.99999999999989
  3
STANDARD-2
100
AcDbAlignedDimension
 13
3199.918972759508
 23
-344.5788188230714
 33
0.0
 14
3161.918972759507
 24
-414.5788188230713
 34
0.0
 50
90.0
100
AcDbRotatedDimension
  0
DIMENSION
  5
76F0B
330
1F
100
AcDbEntity
  8
KAKURESEN
100
AcDbDimension
  2
*D21
 10
3148.793972759507
 20
-414.5788188230719
 30
0.0
 11
3118.512003026701
 21
-416.0795883261719
 31
0.0
 70
    36
 71
     5
 42
2.5
  3
STANDARD2
100
AcDbRadialDimension
 15
3146.393067889786
 25
-415.2757089195394
 35
0.0
 40
0.0
1001
ACAD
1000
DSTYLE
1002
{
1070
    43
1040
15.0
1070
    73
1070
     0
1070
   140
1040
10.0
1070
   145
1040
15.0
1070
   288
1070
     1
1070
   289
1070
     3
1002
}
  0
DIMENSION
  5
76F0C
330
1F
100
AcDbEntity
  8
KAKURESEN
100
AcDbDimension
  2
*D22
 10
3148.793972759509
 20
-424.5788188230733
 30
0.0
 11
3121.056402799341
 21
-444.1541946950353
 31
0.0
 70
   164
 71
     5
 42
4.750000000004547
  3
STANDARD2
100
AcDbRadialDimension
 15
3144.913106135396
 25
-427.3176825009316
 35
0.0
 40
0.0
1001
ACAD
1000
DSTYLE
1002
{
1070
    43
1040
15.0
1070
    73
1070
     0
1070
   140
1040
10.0
1070
   145
1040
15.0
1070
   288
1070
     1
1070
   289
1070
     3
1002
}
  0
DIMENSION
  5
76F0D
330
1F
100
AcDbEntity
  8
KAKURESEN
100
AcDbDimension
  2
*D23
 10
3123.883297810154
 20
-354.5788188230741
 30
0.0
 11
3116.883297810154
 21
-372.4121521564069
 31
0.0
 70
    32
 71
     5
 42
10.00000000000216
  3
STANDARD2
100
AcDbAlignedDimension
 13
3110.793972759506
 23
-344.578818823072
 33
0.0
 14
3110.793972759509
 24
-354.5788188230741
 34
0.0
 50
90.0
100
AcDbRotatedDimension
1001
ACAD
1000
DSTYLE
1002
{
1070
    43
1040
15.0
1070
    73
1070
     0
1070
   140
1040
10.0
1070
   145
1040
15.0
1070
   289
1070
     3
1002
}
  0
LINE
  5
76F0E
330
1F
100
AcDbEntity
  8
センター
  6
CENTER
 48
10.0
100
AcDbLine
 10
3199.918972759505
 20
-354.5788188230718
 30
0.0
 11
3173.668972759504
 21
-354.5788188230734
 31
0.0
  0
LINE
  5
76F0F
330
1F
100
AcDbEntity
  8
センター
  6
CENTER
 48
10.0
100
AcDbLine
 10
3123.918972759503
 20
-354.5788188230726
 30
0.0
 11
3097.668972759502
 21
-354.5788188230742
 31
0.0
  0
LINE
  5
76F10
330
1F
100
AcDbEntity
  8
センター
  6
CENTER
 48
10.0
100
AcDbLine
 10
3161.918972759504
 20
-424.5788188230717
 30
0.0
 11
3135.668972759503
 21
-424.5788188230733
 31
0.0
  0
LINE
  5
76F11
330
1F
100
AcDbEntity
  8
センター
  6
CENTER
 48
10.0
100
AcDbLine
 10
3148.765899496689
 20
-398.7557014159402
 30
0.0
 11
3148.765899496689
 21
-430.4019362302035
 31
0.0
  0
ENDSEC
  0
SECTION
  2
OBJECTS
  0
DICTIONARY
  5
C
330
0
100
AcDbDictionary
281
     1
  3
ACAD_COLOR
350
6C
  3
ACAD_GROUP
350
D
  3
ACAD_LAYOUT
350
1A
  3
ACAD_MATERIAL
350
6B
  3
ACAD_MLEADERSTYLE
350
757A2
  3
ACAD_MLINESTYLE
350
17
  3
ACAD_PLOTSETTINGS
350
19
  3
ACAD_PLOTSTYLENAME
350
E
  3
ACAD_SCALELIST
350
75780
  3
ACAD_TABLESTYLE
350
92
  3
ACAD_VISUALSTYLE
350
7576F
  3
ACDB_RECOMPOSE_DATA
350
757CD
  3
AcDbVariableDictionary
350
59
  3
DWGPROPS
350
77020
  0
DICTIONARY
  5
74D2A
330
2
100
AcDbDictionary
280
     1
281
     1
  3
ACAD_LAYERFILTERS
360
74D2B
  3
ACAD_LAYERSTATES
360
74D56
  0
DICTIONARY
  5
757AB
330
10
100
AcDbDictionary
280
     1
281
     1
  3
ADSK_XREC_LAYER_RECONCILED
360
757AC
  0
DICTIONARY
  5
757B3
330
4B96
100
AcDbDictionary
280
     1
281
     1
  3
ADSK_XREC_LAYER_RECONCILED
360
757B4
  0
DICTIONARY
  5
757B9
330
3B4EC
100
AcDbDictionary
280
     1
281
     1
  3
ADSK_XREC_LAYER_RECONCILED
360
757BA
  0
DICTIONARY
  5
757BB
330
3B4ED
100
AcDbDictionary
280
     1
281
     1
  3
ADSK_XREC_LAYER_RECONCILED
360
757BC
  0
DICTIONARY
  5
757BD
330
3B4EE
100
AcDbDictionary
280
     1
281
     1
  3
ADSK_XREC_LAYER_RECONCILED
360
757BE
  0
DICTIONARY
  5
757BF
330
3B4EF
100
AcDbDictionary
280
     1
281
     1
  3
ADSK_XREC_LAYER_RECONCILED
360
757C0
  0
DICTIONARY
  5
757C1
330
3B4F0
100
AcDbDictionary
280
     1
281
     1
  3
ADSK_XREC_LAYER_RECONCILED
360
757C2
  0
DICTIONARY
  5
757C3
330
3B4F1
100
AcDbDictionary
280
     1
281
     1
  3
ADSK_XREC_LAYER_RECONCILED
360
757C4
  0
DICTIONARY
  5
757C5
330
3B4F2
100
AcDbDictionary
280
     1
281
     1
  3
ADSK_XREC_LAYER_RECONCILED
360
757C6
  0
DICTIONARY
  5
757C7
330
3C519
100
AcDbDictionary
280
     1
281
     1
  3
ADSK_XREC_LAYER_RECONCILED
360
757C8
  0
DICTIONARY
  5
757C9
330
3C51A
100
AcDbDictionary
280
     1
281
     1
  3
ADSK_XREC_LAYER_RECONCILED
360
757CA
  0
DICTIONARY
  5
733B4
330
1F
100
AcDbDictionary
280
     1
281
     1
  3
ACAD_LAYOUTSELFREF
360
733B5
  0
DICTIONARY
  5
733B6
330
73
100
AcDbDictionary
280
     1
281
     1
  3
ACAD_LAYOUTSELFREF
360
733B7
  0
DICTIONARY
  5
6C
102
{ACAD_REACTORS
330
C
102
}
330
C
100
AcDbDictionary
281
     1
  0
DICTIONARY
  5
D
102
{ACAD_REACTORS
330
C
102
}
330
C
100
AcDbDictionary
281
     1
  3
*A1
350
3DB16
  3
*A10
350
44F54
  3
*A11
350
3B80C
  3
*A12
350
45CCA
  3
*A13
350
3B1CE
  3
*A14
350
3B419
  3
*A15
350
38408
  3
*A16
350
38400
  3
*A17
350
3C06C
  3
*A18
350
3B1CD
  3
*A19
350
3B800
  3
*A2
350
756CC
  3
*A20
350
49DC1
  3
*A21
350
749A7
  3
*A22
350
749B0
  3
*A23
350
3DCEF
  3
*A24
350
38402
  3
*A25
350
3BC29
  3
*A26
350
455D4
  3
*A27
350
4A059
  3
*A28
350
3B428
  3
*A29
350
433A9
  3
*A3
350
3E386
  3
*A30
350
38403
  3
*A31
350
47951
  3
*A32
350
3B855
  3
*A33
350
3CCBD
  3
*A34
350
38405
  3
*A35
350
3E18A
  3
*A36
350
38404
  3
*A37
350
49DBF
  3
*A38
350
3C06B
  3
*A39
350
42C97
  3
*A4
350
455DA
  3
*A40
350
3E38D
  3
*A41
350
455D5
  3
*A42
350
4A057
  3
*A43
350
3D770
  3
*A44
350
3C068
  3
*A45
350
3C069
  3
*A46
350
3C067
  3
*A47
350
3B1C2
  3
*A48
350
49DC2
  3
*A49
350
7499E
  3
*A5
350
756CE
  3
*A50
350
38401
  3
*A51
350
739EB
  3
*A52
350
4A05A
  3
*A53
350
749B7
  3
*A54
350
76D9E
  3
*A55
350
76D9F
  3
*A56
350
3E295
  3
*A57
350
76DA0
  3
*A58
350
49DC0
  3
*A59
350
76DA2
  3
*A6
350
73B84
  3
*A60
350
73C00
  3
*A61
350
4A058
  3
*A62
350
3B1C1
  3
*A63
350
38407
  3
*A64
350
3C21C
  3
*A65
350
383FF
  3
*A66
350
3C06D
  3
*A67
350
73B77
  3
*A68
350
45CC5
  3
*A69
350
455D7
  3
*A7
350
73C09
  3
*A70
350
47694
  3
*A8
350
3C06A
  3
*A9
350
38406
  0
DICTIONARY
  5
1A
102
{ACAD_REACTORS
330
C
102
}
330
C
100
AcDbDictionary
281
     1
  3
Model
350
22
  3
ﾚｲｱｳﾄ1
350
1D
  0
DICTIONARY
  5
6B
102
{ACAD_REACTORS
330
C
102
}
330
C
100
AcDbDictionary
281
     1
  3
ByBlock
350
7575F
  3
ByLayer
350
75757
  3
Global
350
75767
  0
DICTIONARY
  5
757A2
102
{ACAD_REACTORS
330
C
102
}
330
C
100
AcDbDictionary
281
     1
  3
Standard
350
757A3
  0
DICTIONARY
  5
17
102
{ACAD_REACTORS
330
C
102
}
330
C
100
AcDbDictionary
281
     1
  3
Standard
350
18
  0
DICTIONARY
  5
19
102
{ACAD_REACTORS
330
C
102
}
330
C
100
AcDbDictionary
281
     1
  3
A3
350
44F75
  3
A3-2
350
44F76
  3
A3-3
350
45CCC
  3
A3-カバー
350
494B6
  3
A3-裏箱
350
494B5
  3
A4
350
49895
  0
ACDBDICTIONARYWDFLT
  5
E
102
{ACAD_XDICTIONARY
360
733BC
102
}
102
{ACAD_REACTORS
330
C
102
}
330
C
100
AcDbDictionary
281
     1
  3
Color_10
350
7340F
  3
Color_2
350
7340C
  3
Color_21
350
73410
  3
Color_241
350
7340E
  3
Color_250
350
73406
  3
Color_3
350
73408
  3
Color_4
350
7340A
  3
Color_5
350
73407
  3
Color_6
350
7340D
  3
Color_7
350
73405
  3
NORMAL
350
F
100
AcDbDictionaryWithDefault
340
F
  0
DICTIONARY
  5
75780
102
{ACAD_REACTORS
330
C
102
}
330
C
100
AcDbDictionary
281
     1
  3
A0
350
75781
  3
A1
350
75782
  3
A2
350
75783
  3
A3
350
75784
  3
A4
350
75785
  3
A5
350
75786
  3
A6
350
75787
  3
A7
350
75788
  3
A8
350
75789
  3
A9
350
7578A
  3
B0
350
7578B
  3
B1
350
7578C
  3
B2
350
7578D
  3
B3
350
7578E
  3
B4
350
7578F
  3
B5
350
75790
  3
B6
350
75791
  3
B7
350
75792
  3
B8
350
75793
  3
B9
350
75794
  3
C0
350
75795
  3
C1
350
75796
  3
C2
350
75797
  3
C3
350
75798
  3
C4
350
75799
  3
C5
350
7579A
  3
C6
350
7579B
  3
C7
350
7579C
  3
C8
350
7579D
  3
C9
350
7579E
  3
D0
350
7579F
  3
D1
350
757A0
  3
D2
350
757A1
  0
DICTIONARY
  5
92
102
{ACAD_REACTORS
330
C
102
}
330
C
100
AcDbDictionary
281
     1
  3
STANDARD
350
72ECD
  0
DICTIONARY
  5
7576F
102
{ACAD_REACTORS
330
C
102
}
330
C
100
AcDbDictionary
281
     1
  3
2dWireframe
350
75775
  3
3D Hidden
350
75777
  3
3dWireframe
350
75776
  3
Basic
350
75774
  3
Brighten
350
7577B
  3
ColorChange
350
7577F
  3
Conceptual
350
75778
  3
Dim
350
7577A
  3
Facepattern
350
7577E
  3
Flat
350
75770
  3
FlatWithEdges
350
75771
  3
Gouraud
350
75772
  3
GouraudWithEdges
350
75773
  3
Linepattern
350
7577D
  3
Realistic
350
75779
  3
Thicken
350
7577C
  0
XRECORD
  5
757CD
102
{ACAD_REACTORS
330
C
102
}
330
C
100
AcDbXrecord
280
     1
 90
        1
330
72ECD
  0
DICTIONARY
  5
59
102
{ACAD_REACTORS
330
C
102
}
330
C
100
AcDbDictionary
281
     1
  3
CANNOSCALE
350
757D0
  3
CMLEADERSTYLE
350
757CE
  3
CTABLESTYLE
350
72ECE
  3
DIMASSOC
350
26F3
  3
HIDETEXT
350
72ECF
  3
INDEXCTL
350
7701E
  3
LIGHTINGUNITS
350
757D1
  3
MSLTSCALE
350
757CF
  3
SORTENTS
350
7701D
  0
XRECORD
  5
77020
102
{ACAD_REACTORS
330
C
102
}
330
C
100
AcDbXrecord
280
     1
  1
DWGPROPS COOKIE
  2

  3

  4

  6

  7

  8
Owner
  9

300
=
301
=
302
=
303
=
304
=
305
=
306
=
307
=
308
=
309
=
 40
45.19019476851851
 41
2453353.717125822
 42
2455041.420480139
  1

 90
        0
  0
DICTIONARY
  5
74D2B
102
{ACAD_REACTORS
330
74D2A
102
}
330
74D2A
100
AcDbDictionary
280
     1
281
     1
  3
-
360
74D2C
  3
W01
360
74D2D
  3
W\U+00E4nde
360
74D2E
  3
W\U+0142\U+0105czone
360
74D2F
  0
DICTIONARY
  5
74D56
102
{ACAD_REACTORS
330
74D2A
102
}
330
74D2A
100
AcDbDictionary
281
     1
  0
XRECORD
  5
757AC
102
{ACAD_REACTORS
330
757AB
102
}
330
757AB
100
AcDbXrecord
280
     1
290
     1
  0
XRECORD
  5
757B4
102
{ACAD_REACTORS
330
757B3
102
}
330
757B3
100
AcDbXrecord
280
     1
290
     1
  0
XRECORD
  5
757BA
102
{ACAD_REACTORS
330
757B9
102
}
330
757B9
100
AcDbXrecord
280
     1
290
     1
  0
XRECORD
  5
757BC
102
{ACAD_REACTORS
330
757BB
102
}
330
757BB
100
AcDbXrecord
280
     1
290
     1
  0
XRECORD
  5
757BE
102
{ACAD_REACTORS
330
757BD
102
}
330
757BD
100
AcDbXrecord
280
     1
290
     1
  0
XRECORD
  5
757C0
102
{ACAD_REACTORS
330
757BF
102
}
330
757BF
100
AcDbXrecord
280
     1
290
     1
  0
XRECORD
  5
757C2
102
{ACAD_REACTORS
330
757C1
102
}
330
757C1
100
AcDbXrecord
280
     1
290
     1
  0
XRECORD
  5
757C4
102
{ACAD_REACTORS
330
757C3
102
}
330
757C3
100
AcDbXrecord
280
     1
290
     1
  0
XRECORD
  5
757C6
102
{ACAD_REACTORS
330
757C5
102
}
330
757C5
100
AcDbXrecord
280
     1
290
     1
  0
XRECORD
  5
757C8
102
{ACAD_REACTORS
330
757C7
102
}
330
757C7
100
AcDbXrecord
280
     1
290
     1
  0
XRECORD
  5
757CA
102
{ACAD_REACTORS
330
757C9
102
}
330
757C9
100
AcDbXrecord
280
     1
290
     1
  0
XRECORD
  5
733B5
102
{ACAD_REACTORS
330
733B4
102
}
330
733B4
100
AcDbXrecord
280
     1
340
1F
  0
XRECORD
  5
733B7
102
{ACAD_REACTORS
330
733B6
102
}
330
733B6
100
AcDbXrecord
280
     1
340
73
  0
GROUP
  5
3DB16
102
{ACAD_REACTORS
330
D
102
}
330
D
100
AcDbGroup
300

 70
     1
 71
     1
  0
GROUP
  5
44F54
102
{ACAD_REACTORS
330
D
102
}
330
D
100
AcDbGroup
300

 70
     1
 71
     1
  0
GROUP
  5
3B80C
102
{ACAD_REACTORS
330
D
102
}
330
D
100
AcDbGroup
300

 70
     1
 71
     1
  0
GROUP
  5
45CCA
102
{ACAD_REACTORS
330
D
102
}
330
D
100
AcDbGroup
300

 70
     1
 71
     1
  0
GROUP
  5
3B1CE
102
{ACAD_REACTORS
330
D
102
}
330
D
100
AcDbGroup
300

 70
     1
 71
     1
  0
GROUP
  5
3B419
102
{ACAD_REACTORS
330
D
102
}
330
D
100
AcDbGroup
300

 70
     1
 71
     1
  0
GROUP
  5
38408
102
{ACAD_REACTORS
330
D
102
}
330
D
100
AcDbGroup
300

 70
     1
 71
     1
  0
GROUP
  5
38400
102
{ACAD_REACTORS
330
D
102
}
330
D
100
AcDbGroup
300

 70
     1
 71
     1
  0
GROUP
  5
3C06C
102
{ACAD_REACTORS
330
D
102
}
330
D
100
AcDbGroup
300

 70
     1
 71
     1
  0
GROUP
  5
3B1CD
102
{ACAD_REACTORS
330
D
102
}
330
D
100
AcDbGroup
300

 70
     1
 71
     1
  0
GROUP
  5
3B800
102
{ACAD_REACTORS
330
D
102
}
330
D
100
AcDbGroup
300

 70
     1
 71
     1
  0
GROUP
  5
756CC
102
{ACAD_REACTORS
330
D
102
}
330
D
100
AcDbGroup
300

 70
     1
 71
     1
  0
GROUP
  5
49DC1
102
{ACAD_REACTORS
330
D
102
}
330
D
100
AcDbGroup
300

 70
     1
 71
     1
  0
GROUP
  5
749A7
102
{ACAD_REACTORS
330
D
102
}
330
D
100
AcDbGroup
300

 70
     1
 71
     1
  0
GROUP
  5
749B0
102
{ACAD_REACTORS
330
D
102
}
330
D
100
AcDbGroup
300

 70
     1
 71
     1
  0
GROUP
  5
3DCEF
102
{ACAD_REACTORS
330
D
102
}
330
D
100
AcDbGroup
300

 70
     1
 71
     1
  0
GROUP
  5
38402
102
{ACAD_REACTORS
330
D
102
}
330
D
100
AcDbGroup
300

 70
     1
 71
     1
  0
GROUP
  5
3BC29
102
{ACAD_REACTORS
330
D
102
}
330
D
100
AcDbGroup
300

 70
     1
 71
     1
  0
GROUP
  5
455D4
102
{ACAD_REACTORS
330
D
102
}
330
D
100
AcDbGroup
300

 70
     1
 71
     1
  0
GROUP
  5
4A059
102
{ACAD_REACTORS
330
D
102
}
330
D
100
AcDbGroup
300

 70
     1
 71
     1
  0
GROUP
  5
3B428
102
{ACAD_REACTORS
330
D
102
}
330
D
100
AcDbGroup
300

 70
     1
 71
     1
  0
GROUP
  5
433A9
102
{ACAD_REACTORS
330
D
102
}
330
D
100
AcDbGroup
300

 70
     1
 71
     1
  0
GROUP
  5
3E386
102
{ACAD_REACTORS
330
D
102
}
330
D
100
AcDbGroup
300

 70
     1
 71
     1
  0
GROUP
  5
38403
102
{ACAD_REACTORS
330
D
102
}
330
D
100
AcDbGroup
300

 70
     1
 71
     1
  0
GROUP
  5
47951
102
{ACAD_REACTORS
330
D
102
}
330
D
100
AcDbGroup
300

 70
     1
 71
     1
  0
GROUP
  5
3B855
102
{ACAD_REACTORS
330
D
102
}
330
D
100
AcDbGroup
300

 70
     1
 71
     1
  0
GROUP
  5
3CCBD
102
{ACAD_REACTORS
330
D
102
}
330
D
100
AcDbGroup
300

 70
     1
 71
     1
  0
GROUP
  5
38405
102
{ACAD_REACTORS
330
D
102
}
330
D
100
AcDbGroup
300

 70
     1
 71
     1
  0
GROUP
  5
3E18A
102
{ACAD_REACTORS
330
D
102
}
330
D
100
AcDbGroup
300

 70
     1
 71
     1
  0
GROUP
  5
38404
102
{ACAD_REACTORS
330
D
102
}
330
D
100
AcDbGroup
300

 70
     1
 71
     1
  0
GROUP
  5
49DBF
102
{ACAD_REACTORS
330
D
102
}
330
D
100
AcDbGroup
300

 70
     1
 71
     1
  0
GROUP
  5
3C06B
102
{ACAD_REACTORS
330
D
102
}
330
D
100
AcDbGroup
300

 70
     1
 71
     1
  0
GROUP
  5
42C97
102
{ACAD_REACTORS
330
D
102
}
330
D
100
AcDbGroup
300

 70
     1
 71
     1
  0
GROUP
  5
455DA
102
{ACAD_REACTORS
330
D
102
}
330
D
100
AcDbGroup
300

 70
     1
 71
     1
  0
GROUP
  5
3E38D
102
{ACAD_REACTORS
330
D
102
}
330
D
100
AcDbGroup
300

 70
     1
 71
     1
  0
GROUP
  5
455D5
102
{ACAD_REACTORS
330
D
102
}
330
D
100
AcDbGroup
300

 70
     1
 71
     1
  0
GROUP
  5
4A057
102
{ACAD_REACTORS
330
D
102
}
330
D
100
AcDbGroup
300

 70
     1
 71
     1
  0
GROUP
  5
3D770
102
{ACAD_REACTORS
330
D
102
}
330
D
100
AcDbGroup
300

 70
     1
 71
     1
  0
GROUP
  5
3C068
102
{ACAD_REACTORS
330
D
102
}
330
D
100
AcDbGroup
300

 70
     1
 71
     1
  0
GROUP
  5
3C069
102
{ACAD_REACTORS
330
D
102
}
330
D
100
AcDbGroup
300

 70
     1
 71
     1
  0
GROUP
  5
3C067
102
{ACAD_REACTORS
330
D
102
}
330
D
100
AcDbGroup
300

 70
     1
 71
     1
  0
GROUP
  5
3B1C2
102
{ACAD_REACTORS
330
D
102
}
330
D
100
AcDbGroup
300

 70
     1
 71
     1
  0
GROUP
  5
49DC2
102
{ACAD_REACTORS
330
D
102
}
330
D
100
AcDbGroup
300

 70
     1
 71
     1
  0
GROUP
  5
7499E
102
{ACAD_REACTORS
330
D
102
}
330
D
100
AcDbGroup
300

 70
     1
 71
     1
  0
GROUP
  5
756CE
102
{ACAD_REACTORS
330
D
102
}
330
D
100
AcDbGroup
300

 70
     1
 71
     1
  0
GROUP
  5
38401
102
{ACAD_REACTORS
330
D
102
}
330
D
100
AcDbGroup
300

 70
     1
 71
     1
  0
GROUP
  5
739EB
102
{ACAD_REACTORS
330
D
102
}
330
D
100
AcDbGroup
300

 70
     1
 71
     1
  0
GROUP
  5
4A05A
102
{ACAD_REACTORS
330
D
102
}
330
D
100
AcDbGroup
300

 70
     1
 71
     1
  0
GROUP
  5
749B7
102
{ACAD_REACTORS
330
D
102
}
330
D
100
AcDbGroup
300

 70
     1
 71
     1
  0
GROUP
  5
76D9E
102
{ACAD_REACTORS
330
D
102
}
330
D
100
AcDbGroup
300

 70
     1
 71
     1
340
76C42
340
76C3E
340
76C43
340
76C41
340
76C3F
340
76C40
  0
GROUP
  5
76D9F
102
{ACAD_REACTORS
330
D
102
}
330
D
100
AcDbGroup
300

 70
     1
 71
     1
  0
GROUP
  5
3E295
102
{ACAD_REACTORS
330
D
102
}
330
D
100
AcDbGroup
300

 70
     1
 71
     1
  0
GROUP
  5
76DA0
102
{ACAD_REACTORS
330
D
102
}
330
D
100
AcDbGroup
300

 70
     1
 71
     1
340
76BFF
340
76BFE
340
76C23
340
76C22
340
76B31
340
76B30
340
76C0D
340
76B91
340
76C05
340
76C0B
  0
GROUP
  5
49DC0
102
{ACAD_REACTORS
330
D
102
}
330
D
100
AcDbGroup
300

 70
     1
 71
     1
  0
GROUP
  5
76DA2
102
{ACAD_REACTORS
330
D
102
}
330
D
100
AcDbGroup
300

 70
     1
 71
     1
  0
GROUP
  5
73B84
102
{ACAD_REACTORS
330
D
102
}
330
D
100
AcDbGroup
300

 70
     1
 71
     1
  0
GROUP
  5
73C00
102
{ACAD_REACTORS
330
D
102
}
330
D
100
AcDbGroup
300

 70
     1
 71
     1
  0
GROUP
  5
4A058
102
{ACAD_REACTORS
330
D
102
}
330
D
100
AcDbGroup
300

 70
     1
 71
     1
  0
GROUP
  5
3B1C1
102
{ACAD_REACTORS
330
D
102
}
330
D
100
AcDbGroup
300

 70
     1
 71
     1
  0
GROUP
  5
38407
102
{ACAD_REACTORS
330
D
102
}
330
D
100
AcDbGroup
300

 70
     1
 71
     1
  0
GROUP
  5
3C21C
102
{ACAD_REACTORS
330
D
102
}
330
D
100
AcDbGroup
300

 70
     1
 71
     1
  0
GROUP
  5
383FF
102
{ACAD_REACTORS
330
D
102
}
330
D
100
AcDbGroup
300

 70
     1
 71
     1
  0
GROUP
  5
3C06D
102
{ACAD_REACTORS
330
D
102
}
330
D
100
AcDbGroup
300

 70
     1
 71
     1
  0
GROUP
  5
73B77
102
{ACAD_REACTORS
330
D
102
}
330
D
100
AcDbGroup
300

 70
     1
 71
     1
  0
GROUP
  5
45CC5
102
{ACAD_REACTORS
330
D
102
}
330
D
100
AcDbGroup
300

 70
     1
 71
     1
  0
GROUP
  5
455D7
102
{ACAD_REACTORS
330
D
102
}
330
D
100
AcDbGroup
300

 70
     1
 71
     1
  0
GROUP
  5
73C09
102
{ACAD_REACTORS
330
D
102
}
330
D
100
AcDbGroup
300

 70
     1
 71
     1
  0
GROUP
  5
47694
102
{ACAD_REACTORS
330
D
102
}
330
D
100
AcDbGroup
300

 70
     1
 71
     1
  0
GROUP
  5
3C06A
102
{ACAD_REACTORS
330
D
102
}
330
D
100
AcDbGroup
300

 70
     1
 71
     1
  0
GROUP
  5
38406
102
{ACAD_REACTORS
330
D
102
}
330
D
100
AcDbGroup
300

 70
     1
 71
     1
  0
LAYOUT
  5
22
102
{ACAD_XDICTIONARY
360
77023
102
}
102
{ACAD_REACTORS
330
1A
102
}
330
1A
100
AcDbPlotSettings
  1

  2
DocuCentre-II C2200
  4
A3
  6

 40
4.857749938964843
 41
4.942420959472656
 42
4.9423828125
 43
4.857757568359375
 44
297.0106506347656
 45
420.0313415527343
 46
0.0
 47
0.0
 48
1925.549075739784
 49
-164.7441975573513
140
2765.549075739784
141
429.2558024426484
142
1.0
143
2.068495292870712
 70
 11952
 72
     1
 73
     1
 74
     1
  7
aclt.ctb
 75
     0
147
0.4834432079428006
148
-2761.264887424149
149
599.4316197390681
100
AcDbLayout
  1
Model
 70
     1
 71
     0
 10
0.0
 20
0.0
 11
841.0
 21
594.0
 12
0.0
 22
0.0
 32
0.0
 14
-4334.40611206068
 24
-963.8082875265371
 34
0.0
 15
5853.333734743426
 25
1943.283449819471
 35
6.0
146
0.0
 13
0.0
 23
0.0
 33
0.0
 16
1.0
 26
0.0
 36
0.0
 17
0.0
 27
1.0
 37
0.0
 76
     0
330
1F
331
75755
1001
ACAD_PSEXT
1000
DocuCentre-II C2200
1000
FX DocuCentre-II C2200
1000
192.168.0.200
1000

1070
     0
  0
LAYOUT
  5
1D
102
{ACAD_XDICTIONARY
360
77021
102
}
102
{ACAD_REACTORS
330
1A
102
}
330
1A
100
AcDbPlotSettings
  1

  2
RICOH imagio MF1530 RP-GL/2
  4

  6

 40
0.0
 41
0.0
 42
0.0
 43
0.0
 44
0.0
 45
0.0
 46
0.0
 47
0.0
 48
0.0
 49
0.0
140
0.0
141
0.0
142
1.0
143
1.0
 70
   688
 72
     0
 73
     0
 74
     5
  7
aclt.ctb
 75
    16
147
1.0
148
0.0
149
0.0
100
AcDbLayout
  1
ﾚｲｱｳﾄ1
 70
     1
 71
     1
 10
0.0
 20
0.0
 11
12.0
 21
9.0
 12
0.0
 22
0.0
 32
0.0
 14
0.0
 24
0.0
 34
0.0
 15
0.0
 25
0.0
 35
0.0
146
0.0
 13
0.0
 23
0.0
 33
0.0
 16
1.0
 26
0.0
 36
0.0
 17
0.0
 27
1.0
 37
0.0
 76
     0
330
73
  0
MATERIAL
  5
7575F
102
{ACAD_XDICTIONARY
360
75760
102
}
102
{ACAD_REACTORS
330
6B
102
}
330
6B
100
AcDbMaterial
  1
ByBlock
 72
     0
 43
0.0208333333333333
 43
0.0
 43
0.0
 43
0.0
 43
0.0
 43
0.0208333333333333
 43
0.0
 43
0.0
 43
0.0
 43
0.0
 43
1.0
 43
0.0
 43
0.0
 43
0.0
 43
0.0
 43
1.0
 77
     0
 47
0.0208333333333333
 47
0.0
 47
0.0
 47
0.0
 47
0.0
 47
0.0208333333333333
 47
0.0
 47
0.0
 47
0.0
 47
0.0
 47
1.0
 47
0.0
 47
0.0
 47
0.0
 47
0.0
 47
1.0
171
     0
 49
0.0208333333333333
 49
0.0
 49
0.0
 49
0.0
 49
0.0
 49
0.0208333333333333
 49
0.0
 49
0.0
 49
0.0
 49
0.0
 49
1.0
 49
0.0
 49
0.0
 49
0.0
 49
0.0
 49
1.0
175
     0
142
0.0208333333333333
142
0.0
142
0.0
142
0.0
142
0.0
142
0.0208333333333333
142
0.0
142
0.0
142
0.0
142
0.0
142
1.0
142
0.0
142
0.0
142
0.0
142
0.0
142
1.0
179
     0
144
0.0208333333333333
144
0.0
144
0.0
144
0.0
144
0.0
144
0.0208333333333333
144
0.0
144
0.0
144
0.0
144
0.0
144
1.0
144
0.0
144
0.0
144
0.0
144
0.0
144
1.0
147
0.0208333333333333
147
0.0
147
0.0
147
0.0
147
0.0
147
0.0208333333333333
147
0.0
147
0.0
147
0.0
147
0.0
147
1.0
147
0.0
147
0.0
147
0.0
147
0.0
147
1.0
  0
MATERIAL
  5
75757
102
{ACAD_XDICTIONARY
360
75758
102
}
102
{ACAD_REACTORS
330
6B
102
}
330
6B
100
AcDbMaterial
  1
ByLayer
 72
     0
 43
0.0208333333333333
 43
0.0
 43
0.0
 43
0.0
 43
0.0
 43
0.0208333333333333
 43
0.0
 43
0.0
 43
0.0
 43
0.0
 43
1.0
 43
0.0
 43
0.0
 43
0.0
 43
0.0
 43
1.0
 77
     0
 47
0.0208333333333333
 47
0.0
 47
0.0
 47
0.0
 47
0.0
 47
0.0208333333333333
 47
0.0
 47
0.0
 47
0.0
 47
0.0
 47
1.0
 47
0.0
 47
0.0
 47
0.0
 47
0.0
 47
1.0
171
     0
 49
0.0208333333333333
 49
0.0
 49
0.0
 49
0.0
 49
0.0
 49
0.0208333333333333
 49
0.0
 49
0.0
 49
0.0
 49
0.0
 49
1.0
 49
0.0
 49
0.0
 49
0.0
 49
0.0
 49
1.0
175
     0
142
0.0208333333333333
142
0.0
142
0.0
142
0.0
142
0.0
142
0.0208333333333333
142
0.0
142
0.0
142
0.0
142
0.0
142
1.0
142
0.0
142
0.0
142
0.0
142
0.0
142
1.0
179
     0
144
0.0208333333333333
144
0.0
144
0.0
144
0.0
144
0.0
144
0.0208333333333333
144
0.0
144
0.0
144
0.0
144
0.0
144
1.0
144
0.0
144
0.0
144
0.0
144
0.0
144
1.0
147
0.0208333333333333
147
0.0
147
0.0
147
0.0
147
0.0
147
0.0208333333333333
147
0.0
147
0.0
147
0.0
147
0.0
147
1.0
147
0.0
147
0.0
147
0.0
147
0.0
147
1.0
  0
MATERIAL
  5
75767
102
{ACAD_XDICTIONARY
360
75768
102
}
102
{ACAD_REACTORS
330
6B
102
}
330
6B
100
AcDbMaterial
  1
Global
 72
     0
 43
0.0208333333333333
 43
0.0
 43
0.0
 43
0.0
 43
0.0
 43
0.0208333333333333
 43
0.0
 43
0.0
 43
0.0
 43
0.0
 43
1.0
 43
0.0
 43
0.0
 43
0.0
 43
0.0
 43
1.0
 77
     0
 47
0.0208333333333333
 47
0.0
 47
0.0
 47
0.0
 47
0.0
 47
0.0208333333333333
 47
0.0
 47
0.0
 47
0.0
 47
0.0
 47
1.0
 47
0.0
 47
0.0
 47
0.0
 47
0.0
 47
1.0
171
     0
 49
0.0208333333333333
 49
0.0
 49
0.0
 49
0.0
 49
0.0
 49
0.0208333333333333
 49
0.0
 49
0.0
 49
0.0
 49
0.0
 49
1.0
 49
0.0
 49
0.0
 49
0.0
 49
0.0
 49
1.0
175
     0
142
0.0208333333333333
142
0.0
142
0.0
142
0.0
142
0.0
142
0.0208333333333333
142
0.0
142
0.0
142
0.0
142
0.0
142
1.0
142
0.0
142
0.0
142
0.0
142
0.0
142
1.0
179
     0
144
0.0208333333333333
144
0.0
144
0.0
144
0.0
144
0.0
144
0.0208333333333333
144
0.0
144
0.0
144
0.0
144
0.0
144
1.0
144
0.0
144
0.0
144
0.0
144
0.0
144
1.0
147
0.0208333333333333
147
0.0
147
0.0
147
0.0
147
0.0
147
0.0208333333333333
147
0.0
147
0.0
147
0.0
147
0.0
147
1.0
147
0.0
147
0.0
147
0.0
147
0.0
147
1.0
  0
MLEADERSTYLE
  5
757A3
102
{ACAD_REACTORS
330
757A2
102
}
330
757A2
100
AcDbMLeaderStyle
170
     2
171
     1
172
     0
 90
        2
 40
0.0
 41
0.0
173
     1
 91
-1056964608
340
14
 92
       -2
290
     1
 42
0.09
291
     1
 43
0.36
  3
Standard
 44
0.18
300

342
11
174
     1
178
     6
175
     1
176
     0
 93
-1056964608
 45
0.18
292
     0
297
     0
 46
0.18
 94
-1056964608
 47
1.0
 49
1.0
140
1.0
293
     1
141
0.0
294
     1
177
     0
142
1.0
295
     0
296
     0
143
0.125
1001
ACAD_MLEADERVER
1070
     2
  0
MLINESTYLE
  5
18
102
{ACAD_REACTORS
330
17
102
}
330
17
100
AcDbMlineStyle
  2
STANDARD
 70
     0
  3

 62
   256
 51
90.0
 52
90.0
 71
     2
 49
0.5
 62
   256
  6
BYLAYER
 49
-0.5
 62
   256
  6
BYLAYER
  0
PLOTSETTINGS
  5
44F75
102
{ACAD_XDICTIONARY
360
77025
102
}
102
{ACAD_REACTORS
330
19
102
}
330
19
100
AcDbPlotSettings
  1
A3
  2
DocuCentre-II C2200
  4
A3
  6

 40
4.857749938964843
 41
4.942420959472656
 42
4.9423828125
 43
4.857757568359375
 44
297.0106506347656
 45
420.0313415527343
 46
0.0
 47
0.0
 48
1931.856846578314
 49
504.8549489222877
140
2765.549075739784
141
1092.809094646041
142
1.0
143
2.0
 70
  1696
 72
     1
 73
     1
 74
     4
  7
aclt-2.ctb
 75
     0
147
0.5
148
-1931.856846578314
149
-504.8549489222877
  0
PLOTSETTINGS
  5
44F76
102
{ACAD_XDICTIONARY
360
77027
102
}
102
{ACAD_REACTORS
330
19
102
}
330
19
100
AcDbPlotSettings
  1
A3-2
  2
DocuCentre-II C2200
  4
A3
  6

 40
4.857749938964843
 41
4.942420959472656
 42
4.9423828125
 43
4.857757568359375
 44
297.0106506347656
 45
420.0313415527343
 46
0.0
 47
0.0
 48
1931.856846578314
 49
504.8549489222877
140
2765.549075739784
141
1092.809094646041
142
1.0
143
2.0
 70
  1696
 72
     1
 73
     1
 74
     4
  7
aclt.ctb
 75
     0
147
0.5
148
-1931.856846578314
149
-504.8549489222877
  0
PLOTSETTINGS
  5
45CCC
102
{ACAD_XDICTIONARY
360
77029
102
}
102
{ACAD_REACTORS
330
19
102
}
330
19
100
AcDbPlotSettings
  1
A3-3
  2
DocuCentre-II C2200
  4
A3
  6

 40
4.857749938964843
 41
4.942420959472656
 42
4.9423828125
 43
4.857757568359375
 44
297.0106506347656
 45
420.0313415527343
 46
0.0
 47
0.0
 48
1933.91177403702
 49
-157.3013666741044
140
2765.549075739784
141
429.2558024426484
142
1.0
143
2.0
 70
  1696
 72
     1
 73
     1
 74
     4
  7
aclt.ctb
 75
     0
147
0.5
148
-1933.91177403702
149
157.3013666741044
  0
PLOTSETTINGS
  5
494B6
102
{ACAD_XDICTIONARY
360
7702D
102
}
102
{ACAD_REACTORS
330
19
102
}
330
19
100
AcDbPlotSettings
  1
A3-カバー
  2
DocuCentre-II C2200
  4
A3
  6

 40
4.857749938964843
 41
4.942420959472656
 42
4.9423828125
 43
4.857757568359375
 44
297.0106506347656
 45
420.0313415527343
 46
0.0
 47
0.0
 48
2917.830039012326
 49
-819.8177151204728
140
3749.860613317551
141
-234.2974897607442
142
1.0
143
2.0
 70
  1696
 72
     1
 73
     1
 74
     4
  7
aclt.ctb
 75
     0
147
0.5
148
-2917.830039012326
149
819.8177151204728
  0
PLOTSETTINGS
  5
494B5
102
{ACAD_XDICTIONARY
360
7702B
102
}
102
{ACAD_REACTORS
330
19
102
}
330
19
100
AcDbPlotSettings
  1
A3-裏箱
  2
DocuCentre-II C2200
  4
A3
  6

 40
4.857749938964843
 41
4.942420959472656
 42
4.9423828125
 43
4.857757568359375
 44
297.0106506347656
 45
420.0313415527343
 46
0.0
 47
0.0
 48
2916.624636802492
 49
-156.2207742845348
140
3749.860613317551
141
429.2558024426484
142
1.0
143
2.0
 70
  1696
 72
     1
 73
     1
 74
     4
  7
aclt.ctb
 75
     0
147
0.5
148
-2916.624636802492
149
156.2207742845348
  0
PLOTSETTINGS
  5
49895
102
{ACAD_XDICTIONARY
360
7702F
102
}
102
{ACAD_REACTORS
330
19
102
}
330
19
100
AcDbPlotSettings
  1
A4
  2
DPC525A
  4
A4
  6

 40
4.857749938964843
 41
4.900062561035156
 42
4.942413330078125
 43
4.857757568359375
 44
209.9733276367187
 45
296.9683227539062
 46
0.0
 47
0.0
 48
1933.91177403702
 49
-157.3013666741044
140
2765.549075739784
141
429.2558024426484
142
1.0
143
2.930248772204906
 70
  1712
 72
     1
 73
     1
 74
     4
  7
aclt.ctb
 75
     0
147
0.3412679529074714
148
-1933.91177403702
149
157.3013666741044
  0
DICTIONARY
  5
733BC
330
E
100
AcDbDictionary
280
     1
281
     1
  3
ACAD_XREC_ROUNDTRIP
360
733BD
  0
ACDBPLACEHOLDER
  5
7340F
102
{ACAD_REACTORS
330
E
102
}
330
E
  0
ACDBPLACEHOLDER
  5
7340C
102
{ACAD_REACTORS
330
E
102
}
330
E
  0
ACDBPLACEHOLDER
  5
73410
102
{ACAD_REACTORS
330
E
102
}
330
E
  0
ACDBPLACEHOLDER
  5
7340E
102
{ACAD_REACTORS
330
E
102
}
330
E
  0
ACDBPLACEHOLDER
  5
73406
102
{ACAD_REACTORS
330
E
102
}
330
E
  0
ACDBPLACEHOLDER
  5
73408
102
{ACAD_REACTORS
330
E
102
}
330
E
  0
ACDBPLACEHOLDER
  5
7340A
102
{ACAD_REACTORS
330
E
102
}
330
E
  0
ACDBPLACEHOLDER
  5
73407
102
{ACAD_REACTORS
330
E
102
}
330
E
  0
ACDBPLACEHOLDER
  5
7340D
102
{ACAD_REACTORS
330
E
102
}
330
E
  0
ACDBPLACEHOLDER
  5
73405
102
{ACAD_REACTORS
330
E
102
}
330
E
  0
ACDBPLACEHOLDER
  5
F
102
{ACAD_REACTORS
330
E
102
}
330
E
  0
SCALE
  5
75781
102
{ACAD_REACTORS
330
75780
102
}
330
75780
100
AcDbScale
 70
     0
300
1:1
140
1.0
141
1.0
290
     1
  0
SCALE
  5
75782
102
{ACAD_REACTORS
330
75780
102
}
330
75780
100
AcDbScale
 70
     0
300
1:2
140
1.0
141
2.0
290
     0
  0
SCALE
  5
75783
102
{ACAD_REACTORS
330
75780
102
}
330
75780
100
AcDbScale
 70
     0
300
1:4
140
1.0
141
4.0
290
     0
  0
SCALE
  5
75784
102
{ACAD_REACTORS
330
75780
102
}
330
75780
100
AcDbScale
 70
     0
300
1:5
140
1.0
141
5.0
290
     0
  0
SCALE
  5
75785
102
{ACAD_REACTORS
330
75780
102
}
330
75780
100
AcDbScale
 70
     0
300
1:8
140
1.0
141
8.0
290
     0
  0
SCALE
  5
75786
102
{ACAD_REACTORS
330
75780
102
}
330
75780
100
AcDbScale
 70
     0
300
1:10
140
1.0
141
10.0
290
     0
  0
SCALE
  5
75787
102
{ACAD_REACTORS
330
75780
102
}
330
75780
100
AcDbScale
 70
     0
300
1:16
140
1.0
141
16.0
290
     0
  0
SCALE
  5
75788
102
{ACAD_REACTORS
330
75780
102
}
330
75780
100
AcDbScale
 70
     0
300
1:20
140
1.0
141
20.0
290
     0
  0
SCALE
  5
75789
102
{ACAD_REACTORS
330
75780
102
}
330
75780
100
AcDbScale
 70
     0
300
1:30
140
1.0
141
30.0
290
     0
  0
SCALE
  5
7578A
102
{ACAD_REACTORS
330
75780
102
}
330
75780
100
AcDbScale
 70
     0
300
1:40
140
1.0
141
40.0
290
     0
  0
SCALE
  5
7578B
102
{ACAD_REACTORS
330
75780
102
}
330
75780
100
AcDbScale
 70
     0
300
1:50
140
1.0
141
50.0
290
     0
  0
SCALE
  5
7578C
102
{ACAD_REACTORS
330
75780
102
}
330
75780
100
AcDbScale
 70
     0
300
1:100
140
1.0
141
100.0
290
     0
  0
SCALE
  5
7578D
102
{ACAD_REACTORS
330
75780
102
}
330
75780
100
AcDbScale
 70
     0
300
2:1
140
2.0
141
1.0
290
     0
  0
SCALE
  5
7578E
102
{ACAD_REACTORS
330
75780
102
}
330
75780
100
AcDbScale
 70
     0
300
4:1
140
4.0
141
1.0
290
     0
  0
SCALE
  5
7578F
102
{ACAD_REACTORS
330
75780
102
}
330
75780
100
AcDbScale
 70
     0
300
8:1
140
8.0
141
1.0
290
     0
  0
SCALE
  5
75790
102
{ACAD_REACTORS
330
75780
102
}
330
75780
100
AcDbScale
 70
     0
300
10:1
140
10.0
141
1.0
290
     0
  0
SCALE
  5
75791
102
{ACAD_REACTORS
330
75780
102
}
330
75780
100
AcDbScale
 70
     0
300
100:1
140
100.0
141
1.0
290
     0
  0
SCALE
  5
75792
102
{ACAD_REACTORS
330
75780
102
}
330
75780
100
AcDbScale
 70
     0
300
1/128" = 1'-0"
140
0.0078125
141
12.0
290
     0
  0
SCALE
  5
75793
102
{ACAD_REACTORS
330
75780
102
}
330
75780
100
AcDbScale
 70
     0
300
1/64" = 1'-0"
140
0.015625
141
12.0
290
     0
  0
SCALE
  5
75794
102
{ACAD_REACTORS
330
75780
102
}
330
75780
100
AcDbScale
 70
     0
300
1/32" = 1'-0"
140
0.03125
141
12.0
290
     0
  0
SCALE
  5
75795
102
{ACAD_REACTORS
330
75780
102
}
330
75780
100
AcDbScale
 70
     0
300
1/16" = 1'-0"
140
0.0625
141
12.0
290
     0
  0
SCALE
  5
75796
102
{ACAD_REACTORS
330
75780
102
}
330
75780
100
AcDbScale
 70
     0
300
3/32" = 1'-0"
140
0.09375
141
12.0
290
     0
  0
SCALE
  5
75797
102
{ACAD_REACTORS
330
75780
102
}
330
75780
100
AcDbScale
 70
     0
300
1/8" = 1'-0"
140
0.125
141
12.0
290
     0
  0
SCALE
  5
75798
102
{ACAD_REACTORS
330
75780
102
}
330
75780
100
AcDbScale
 70
     0
300
3/16" = 1'-0"
140
0.1875
141
12.0
290
     0
  0
SCALE
  5
75799
102
{ACAD_REACTORS
330
75780
102
}
330
75780
100
AcDbScale
 70
     0
300
1/4" = 1'-0"
140
0.25
141
12.0
290
     0
  0
SCALE
  5
7579A
102
{ACAD_REACTORS
330
75780
102
}
330
75780
100
AcDbScale
 70
     0
300
3/8" = 1'-0"
140
0.375
141
12.0
290
     0
  0
SCALE
  5
7579B
102
{ACAD_REACTORS
330
75780
102
}
330
75780
100
AcDbScale
 70
     0
300
1/2" = 1'-0"
140
0.5
141
12.0
290
     0
  0
SCALE
  5
7579C
102
{ACAD_REACTORS
330
75780
102
}
330
75780
100
AcDbScale
 70
     0
300
3/4" = 1'-0"
140
0.75
141
12.0
290
     0
  0
SCALE
  5
7579D
102
{ACAD_REACTORS
330
75780
102
}
330
75780
100
AcDbScale
 70
     0
300
1" = 1'-0"
140
1.0
141
12.0
290
     0
  0
SCALE
  5
7579E
102
{ACAD_REACTORS
330
75780
102
}
330
75780
100
AcDbScale
 70
     0
300
1-1/2" = 1'-0"
140
1.5
141
12.0
290
     0
  0
SCALE
  5
7579F
102
{ACAD_REACTORS
330
75780
102
}
330
75780
100
AcDbScale
 70
     0
300
3" = 1'-0"
140
3.0
141
12.0
290
     0
  0
SCALE
  5
757A0
102
{ACAD_REACTORS
330
75780
102
}
330
75780
100
AcDbScale
 70
     0
300
6" = 1'-0"
140
6.0
141
12.0
290
     0
  0
SCALE
  5
757A1
102
{ACAD_REACTORS
330
75780
102
}
330
75780
100
AcDbScale
 70
     0
300
1'-0" = 1'-0"
140
12.0
141
12.0
290
     0
  0
TABLESTYLE
  5
72ECD
102
{ACAD_XDICTIONARY
360
757CB
102
}
102
{ACAD_REACTORS
330
92
102
}
330
92
100
AcDbTableStyle
  3
Standard
 70
     0
 71
     0
 40
0.06
 41
0.06
280
     0
281
     0
  7
Standard
140
0.18
170
     2
 62
     0
 63
     7
283
     0
274
    -2
284
     1
 64
     0
275
    -2
285
     1
 65
     0
276
    -2
286
     1
 66
     0
277
    -2
287
     1
 67
     0
278
    -2
288
     1
 68
     0
279
    -2
289
     1
 69
     0
  7
Standard
140
0.25
170
     5
 62
     0
 63
     7
283
     0
274
    -2
284
     1
 64
     0
275
    -2
285
     1
 65
     0
276
    -2
286
     1
 66
     0
277
    -2
287
     1
 67
     0
278
    -2
288
     1
 68
     0
279
    -2
289
     1
 69
     0
  7
Standard
140
0.18
170
     5
 62
     0
 63
     7
283
     0
274
    -2
284
     1
 64
     0
275
    -2
285
     1
 65
     0
276
    -2
286
     1
 66
     0
277
    -2
287
     1
 67
     0
278
    -2
288
     1
 68
     0
279
    -2
289
     1
 69
     0
  0
VISUALSTYLE
  5
75775
102
{ACAD_REACTORS
330
7576F
102
}
330
7576F
100
AcDbVisualStyle
  2
2dWireframe
 70
     4
 71
     0
 72
     2
 73
     0
 90
        0
 40
-0.6
 41
-30.0
 62
     5
 63
     7
 74
     1
 91
        4
 64
     7
 65
   257
 75
     1
175
     1
 42
1.0
 92
        0
 66
   257
 43
1.0
 76
     1
 77
     6
 78
     2
 67
     7
 79
     5
170
     0
171
     0
290
     0
174
     0
 93
        1
 44
0.0
173
     0
291
     0
 45
0.0
1001
ACAD
1000
AcDbSavedByObjectVersion
1070
     0
  0
VISUALSTYLE
  5
75777
102
{ACAD_REACTORS
330
7576F
102
}
330
7576F
100
AcDbVisualStyle
  2
3D Hidden
 70
     6
 71
     1
 72
     2
 73
     2
 90
        0
 40
-0.6
 41
-30.0
 62
     5
 63
     7
 74
     2
 91
        2
 64
     7
 65
   257
 75
     2
175
     1
 42
40.0
 92
        0
 66
   257
 43
1.0
 76
     1
 77
     6
 78
     2
 67
     7
 79
     3
170
     0
171
     0
290
     0
174
     0
 93
        1
 44
0.0
173
     0
291
     0
 45
0.0
1001
ACAD
1000
AcDbSavedByObjectVersion
1070
     0
  0
VISUALSTYLE
  5
75776
102
{ACAD_REACTORS
330
7576F
102
}
330
7576F
100
AcDbVisualStyle
  2
3dWireframe
 70
     5
 71
     0
 72
     2
 73
     0
 90
        0
 40
-0.6
 41
-30.0
 62
     5
 63
     7
 74
     1
 91
        4
 64
     7
 65
   257
 75
     1
175
     1
 42
1.0
 92
        0
 66
   257
 43
1.0
 76
     1
 77
     6
 78
     2
 67
     7
 79
     5
170
     0
171
     0
290
     0
174
     0
 93
        1
 44
0.0
173
     0
291
     0
 45
0.0
1001
ACAD
1000
AcDbSavedByObjectVersion
1070
     0
  0
VISUALSTYLE
  5
75774
102
{ACAD_REACTORS
330
7576F
102
}
330
7576F
100
AcDbVisualStyle
  2
Basic
 70
     7
 71
     1
 72
     0
 73
     1
 90
        0
 40
-0.6
 41
-30.0
 62
     5
 63
     7
 74
     0
 91
        4
 64
     7
 65
   257
 75
     1
175
     1
 42
1.0
 92
        8
 66
     7
 43
1.0
 76
     1
 77
     6
 78
     2
 67
     7
 79
     5
170
     0
171
     0
290
     0
174
     0
 93
        1
 44
0.0
173
     0
291
     1
 45
0.0
1001
ACAD
1000
AcDbSavedByObjectVersion
1070
     0
  0
VISUALSTYLE
  5
7577B
102
{ACAD_REACTORS
330
7576F
102
}
330
7576F
100
AcDbVisualStyle
  2
Brighten
 70
    12
 71
     2
 72
     2
 73
     0
 90
        0
 40
-0.6
 41
-30.0
 62
     5
 63
     7
 74
     1
 91
        4
 64
     7
 65
   257
 75
     1
175
     1
 42
1.0
 92
        8
 66
     7
 43
1.0
 76
     1
 77
     6
 78
     2
 67
     7
 79
     5
170
     0
171
     0
290
     0
174
     0
 93
        1
 44
50.0
173
     0
291
     1
 45
0.0
1001
ACAD
1000
AcDbSavedByObjectVersion
1070
     0
  0
VISUALSTYLE
  5
7577F
102
{ACAD_REACTORS
330
7576F
102
}
330
7576F
100
AcDbVisualStyle
  2
ColorChange
 70
    16
 71
     2
 72
     2
 73
     3
 90
        0
 40
-0.6
 41
-30.0
 62
     5
 63
     8
 74
     1
 91
        4
 64
     7
 65
   257
 75
     1
175
     1
 42
1.0
 92
        8
 66
     8
 43
1.0
 76
     1
 77
     6
 78
     2
 67
     7
 79
     5
170
     0
171
     0
290
     0
174
     0
 93
        1
 44
0.0
173
     0
291
     1
 45
0.0
1001
ACAD
1000
AcDbSavedByObjectVersion
1070
     0
  0
VISUALSTYLE
  5
75778
102
{ACAD_REACTORS
330
7576F
102
}
330
7576F
100
AcDbVisualStyle
  2
Conceptual
 70
     9
 71
     3
 72
     2
 73
     0
 90
        0
 40
-0.6
 41
-30.0
 62
     5
 63
     7
 74
     2
 91
        2
 64
     7
 65
   257
 75
     1
175
     1
 42
40.0
 92
        8
 66
     7
 43
1.0
 76
     1
 77
     6
 78
     2
 67
     7
 79
     3
170
     0
171
     0
290
     0
174
     0
 93
        1
 44
0.0
173
     0
291
     0
 45
0.0
1001
ACAD
1000
AcDbSavedByObjectVersion
1070
     0
  0
VISUALSTYLE
  5
7577A
102
{ACAD_REACTORS
330
7576F
102
}
330
7576F
100
AcDbVisualStyle
  2
Dim
 70
    11
 71
     2
 72
     2
 73
     0
 90
        0
 40
-0.6
 41
-30.0
 62
     5
 63
     7
 74
     1
 91
        4
 64
     7
 65
   257
 75
     1
175
     1
 42
1.0
 92
        8
 66
     7
 43
1.0
 76
     1
 77
     6
 78
     2
 67
     7
 79
     5
170
     0
171
     0
290
     0
174
     0
 93
        1
 44
-50.0
173
     0
291
     1
 45
0.0
1001
ACAD
1000
AcDbSavedByObjectVersion
1070
     0
  0
VISUALSTYLE
  5
7577E
102
{ACAD_REACTORS
330
7576F
102
}
330
7576F
100
AcDbVisualStyle
  2
Facepattern
 70
    15
 71
     2
 72
     2
 73
     0
 90
        0
 40
-0.6
 41
-30.0
 62
     5
 63
     7
 74
     1
 91
        4
 64
     7
 65
   257
 75
     1
175
     1
 42
1.0
 92
        8
 66
     7
 43
1.0
 76
     1
 77
     6
 78
     2
 67
     7
 79
     5
170
     0
171
     0
290
     0
174
     0
 93
        1
 44
0.0
173
     0
291
     1
 45
0.0
1001
ACAD
1000
AcDbSavedByObjectVersion
1070
     0
  0
VISUALSTYLE
  5
75770
102
{ACAD_REACTORS
330
7576F
102
}
330
7576F
100
AcDbVisualStyle
  2
Flat
 70
     0
 71
     2
 72
     1
 73
     1
 90
        2
 40
-0.6
 41
30.0
 62
     5
 63
     7
 74
     0
 91
        4
 64
     7
 65
   257
 75
     1
175
     1
 42
1.0
 92
        8
 66
     7
 43
1.0
 76
     1
 77
     6
 78
     2
 67
     7
 79
     5
170
     0
171
     0
290
     0
174
     0
 93
       13
 44
0.0
173
     0
291
     1
 45
0.0
1001
ACAD
1000
AcDbSavedByObjectVersion
1070
     0
  0
VISUALSTYLE
  5
75771
102
{ACAD_REACTORS
330
7576F
102
}
330
7576F
100
AcDbVisualStyle
  2
FlatWithEdges
 70
     1
 71
     2
 72
     1
 73
     1
 90
        2
 40
-0.6
 41
30.0
 62
     5
 63
     7
 74
     1
 91
        4
 64
     7
 65
   257
 75
     1
175
     1
 42
1.0
 92
        0
 66
   257
 43
1.0
 76
     1
 77
     6
 78
     2
 67
     7
 79
     5
170
     0
171
     0
290
     0
174
     0
 93
       13
 44
0.0
173
     0
291
     1
 45
0.0
1001
ACAD
1000
AcDbSavedByObjectVersion
1070
     0
  0
VISUALSTYLE
  5
75772
102
{ACAD_REACTORS
330
7576F
102
}
330
7576F
100
AcDbVisualStyle
  2
Gouraud
 70
     2
 71
     2
 72
     2
 73
     1
 90
        2
 40
-0.6
 41
30.0
 62
     5
 63
     7
 74
     0
 91
        4
 64
     7
 65
   257
 75
     1
175
     1
 42
1.0
 92
        0
 66
     7
 43
1.0
 76
     1
 77
     6
 78
     2
 67
     7
 79
     5
170
     0
171
     0
290
     0
174
     0
 93
       13
 44
0.0
173
     0
291
     1
 45
0.0
1001
ACAD
1000
AcDbSavedByObjectVersion
1070
     0
  0
VISUALSTYLE
  5
75773
102
{ACAD_REACTORS
330
7576F
102
}
330
7576F
100
AcDbVisualStyle
  2
GouraudWithEdges
 70
     3
 71
     2
 72
     2
 73
     1
 90
        2
 40
-0.6
 41
30.0
 62
     5
 63
     7
 74
     1
 91
        4
 64
     7
 65
   257
 75
     1
175
     1
 42
1.0
 92
        0
 66
   257
 43
1.0
 76
     1
 77
     6
 78
     2
 67
     7
 79
     5
170
     0
171
     0
290
     0
174
     0
 93
       13
 44
0.0
173
     0
291
     1
 45
0.0
1001
ACAD
1000
AcDbSavedByObjectVersion
1070
     0
  0
VISUALSTYLE
  5
7577D
102
{ACAD_REACTORS
330
7576F
102
}
330
7576F
100
AcDbVisualStyle
  2
Linepattern
 70
    14
 71
     2
 72
     2
 73
     0
 90
        0
 40
-0.6
 41
-30.0
 62
     5
 63
     7
 74
     1
 91
        4
 64
     7
 65
   257
 75
     7
175
     7
 42
1.0
 92
        8
 66
     7
 43
1.0
 76
     1
 77
     6
 78
     2
 67
     7
 79
     5
170
     0
171
     0
290
     0
174
     0
 93
        1
 44
0.0
173
     0
291
     1
 45
0.0
1001
ACAD
1000
AcDbSavedByObjectVersion
1070
     0
  0
VISUALSTYLE
  5
75779
102
{ACAD_REACTORS
330
7576F
102
}
330
7576F
100
AcDbVisualStyle
  2
Realistic
 70
     8
 71
     2
 72
     2
 73
     0
 90
        0
 40
-0.6
 41
-30.0
 62
     5
 63
     7
 74
     1
 91
        0
 64
     7
 65
   257
 75
     1
175
     1
 42
1.0
 92
        8
 66
     8
 43
1.0
 76
     1
 77
     6
 78
     2
 67
     7
 79
     5
170
     0
171
     0
290
     0
174
     0
 93
       13
 44
0.0
173
     0
291
     0
 45
0.0
1001
ACAD
1000
AcDbSavedByObjectVersion
1070
     0
  0
VISUALSTYLE
  5
7577C
102
{ACAD_REACTORS
330
7576F
102
}
330
7576F
100
AcDbVisualStyle
  2
Thicken
 70
    13
 71
     2
 72
     2
 73
     0
 90
        0
 40
-0.6
 41
-30.0
 62
     5
 63
     7
 74
     1
 91
        4
 64
     7
 65
   257
 75
     1
175
     1
 42
1.0
 92
       12
 66
     7
 43
1.0
 76
     1
 77
     6
 78
     2
 67
     7
 79
     5
170
     0
171
     0
290
     0
174
     0
 93
        1
 44
0.0
173
     0
291
     1
 45
0.0
1001
ACAD
1000
AcDbSavedByObjectVersion
1070
     0
  0
DICTIONARYVAR
  5
757D0
102
{ACAD_REACTORS
330
59
102
}
330
59
100
DictionaryVariables
280
     0
  1
1:1
  0
DICTIONARYVAR
  5
757CE
102
{ACAD_REACTORS
330
59
102
}
330
59
100
DictionaryVariables
280
     0
  1
STANDARD
  0
DICTIONARYVAR
  5
72ECE
102
{ACAD_REACTORS
330
59
102
}
330
59
100
DictionaryVariables
280
     0
  1
STANDARD
  0
DICTIONARYVAR
  5
26F3
102
{ACAD_REACTORS
330
59
102
}
330
59
100
DictionaryVariables
280
     0
  1
2
  0
DICTIONARYVAR
  5
72ECF
102
{ACAD_REACTORS
330
59
102
}
330
59
100
DictionaryVariables
280
     0
  1
1
  0
DICTIONARYVAR
  5
7701E
102
{ACAD_REACTORS
330
59
102
}
330
59
100
DictionaryVariables
280
     0
  1
0
  0
DICTIONARYVAR
  5
757D1
102
{ACAD_REACTORS
330
59
102
}
330
59
100
DictionaryVariables
280
     0
  1
0
  0
DICTIONARYVAR
  5
757CF
102
{ACAD_REACTORS
330
59
102
}
330
59
100
DictionaryVariables
280
     0
  1
0
  0
DICTIONARYVAR
  5
7701D
102
{ACAD_REACTORS
330
59
102
}
330
59
100
DictionaryVariables
280
     0
  1
127
  0
XRECORD
  5
74D2C
102
{ACAD_REACTORS
330
74D2B
102
}
330
74D2B
100
AcDbXrecord
280
     1
  1
-
  1
-*
  1
*
  1
*
 70
     0
  1
*
  1
*
  0
XRECORD
  5
74D2D
102
{ACAD_REACTORS
330
74D2B
102
}
330
74D2B
100
AcDbXrecord
280
     1
  1
W01
  1
*
  1
*
  1
*
 70
   256
  1
*
  1
*
  0
XRECORD
  5
74D2E
102
{ACAD_REACTORS
330
74D2B
102
}
330
74D2B
100
AcDbXrecord
280
     1
  1
W\U+00E4nde
  1
*waende*
  1
*
  1
*
 70
     0
  1
*
  1
*
  0
XRECORD
  5
74D2F
102
{ACAD_REACTORS
330
74D2B
102
}
330
74D2B
100
AcDbXrecord
280
     1
  1
W\U+0142\U+0105czone
  1
*
  1
*
  1
*
 70
     1
  1
*
  1
*
  0
DICTIONARY
  5
77023
330
22
100
AcDbDictionary
280
     1
281
     1
  3
ACAD_XREC_ROUNDTRIP
360
77024
  0
DICTIONARY
  5
77021
330
1D
100
AcDbDictionary
280
     1
281
     1
  3
ACAD_XREC_ROUNDTRIP
360
77022
  0
DICTIONARY
  5
75760
330
7575F
100
AcDbDictionary
280
     1
281
     1
  3
ACAD_XREC_ROUNDTRIP
360
77033
  3
BUMPTILE
360
75762
  3
DIFFUSETILE
360
75761
  3
OPACITYTILE
360
75765
  3
REFLECTIONTILE
360
75764
  3
REFRACTIONTILE
360
75766
  3
SPECULARTILE
360
75763
  0
DICTIONARY
  5
75758
330
75757
100
AcDbDictionary
280
     1
281
     1
  3
ACAD_XREC_ROUNDTRIP
360
77032
  3
BUMPTILE
360
7575A
  3
DIFFUSETILE
360
75759
  3
OPACITYTILE
360
7575D
  3
REFLECTIONTILE
360
7575C
  3
REFRACTIONTILE
360
7575E
  3
SPECULARTILE
360
7575B
  0
DICTIONARY
  5
75768
330
75767
100
AcDbDictionary
280
     1
281
     1
  3
ACAD_XREC_ROUNDTRIP
360
77034
  3
BUMPTILE
360
7576A
  3
DIFFUSETILE
360
75769
  3
OPACITYTILE
360
7576D
  3
REFLECTIONTILE
360
7576C
  3
REFRACTIONTILE
360
7576E
  3
SPECULARTILE
360
7576B
  0
DICTIONARY
  5
77025
330
44F75
100
AcDbDictionary
280
     1
281
     1
  3
ACAD_XREC_ROUNDTRIP
360
77026
  0
DICTIONARY
  5
77027
330
44F76
100
AcDbDictionary
280
     1
281
     1
  3
ACAD_XREC_ROUNDTRIP
360
77028
  0
DICTIONARY
  5
77029
330
45CCC
100
AcDbDictionary
280
     1
281
     1
  3
ACAD_XREC_ROUNDTRIP
360
7702A
  0
DICTIONARY
  5
7702D
330
494B6
100
AcDbDictionary
280
     1
281
     1
  3
ACAD_XREC_ROUNDTRIP
360
7702E
  0
DICTIONARY
  5
7702B
330
494B5
100
AcDbDictionary
280
     1
281
     1
  3
ACAD_XREC_ROUNDTRIP
360
7702C
  0
DICTIONARY
  5
7702F
330
49895
100
AcDbDictionary
280
     1
281
     1
  3
ACAD_XREC_ROUNDTRIP
360
77030
  0
XRECORD
  5
733BD
102
{ACAD_REACTORS
330
733BC
102
}
330
733BC
100
AcDbXrecord
280
     1
102
EXTNAMES
  1
NORMAL
  2
Normal
  0
DICTIONARY
  5
757CB
330
72ECD
100
AcDbDictionary
280
     1
281
     1
  3
ACAD_ROUNDTRIP_2008_TABLESTYLE_CELLSTYLEMAP
360
7701F
  3
ACAD_XREC_ROUNDTRIP
360
77031
  0
XRECORD
  5
77024
102
{ACAD_REACTORS
330
77023
102
}
330
77023
100
AcDbXrecord
280
     1
102
SHADEPLOT
 70
     0
102
SHADEPLOTRESLEVEL
 70
     2
102
SHADEPLOTCUSTOMDPI
 70
   300
  0
XRECORD
  5
77022
102
{ACAD_REACTORS
330
77021
102
}
330
77021
100
AcDbXrecord
280
     1
102
SHADEPLOT
 70
     0
102
SHADEPLOTRESLEVEL
 70
     2
102
SHADEPLOTCUSTOMDPI
 70
   300
  0
XRECORD
  5
77033
102
{ACAD_REACTORS
330
75760
102
}
330
75760
100
AcDbXrecord
280
     1
102
MATERIAL
148
0.0
149
0.0
149
0.0
 93
        0
 94
      127
282
     0
 72
     0
 77
     0
171
     0
175
     0
179
     0
273
     0
  0
XRECORD
  5
75762
102
{ACAD_REACTORS
330
75760
102
}
330
75760
100
AcDbXrecord
280
     1
270
     1
271
     1
  0
XRECORD
  5
75761
102
{ACAD_REACTORS
330
75760
102
}
330
75760
100
AcDbXrecord
280
     1
270
     1
271
     1
  0
XRECORD
  5
75765
102
{ACAD_REACTORS
330
75760
102
}
330
75760
100
AcDbXrecord
280
     1
270
     1
271
     1
  0
XRECORD
  5
75764
102
{ACAD_REACTORS
330
75760
102
}
330
75760
100
AcDbXrecord
280
     1
270
     1
271
     1
  0
XRECORD
  5
75766
102
{ACAD_REACTORS
330
75760
102
}
330
75760
100
AcDbXrecord
280
     1
270
     1
271
     1
  0
XRECORD
  5
75763
102
{ACAD_REACTORS
330
75760
102
}
330
75760
100
AcDbXrecord
280
     1
270
     1
271
     1
  0
XRECORD
  5
77032
102
{ACAD_REACTORS
330
75758
102
}
330
75758
100
AcDbXrecord
280
     1
102
MATERIAL
148
0.0
149
0.0
149
0.0
 93
        0
 94
      127
282
     0
 72
     0
 77
     0
171
     0
175
     0
179
     0
273
     0
  0
XRECORD
  5
7575A
102
{ACAD_REACTORS
330
75758
102
}
330
75758
100
AcDbXrecord
280
     1
270
     1
271
     1
  0
XRECORD
  5
75759
102
{ACAD_REACTORS
330
75758
102
}
330
75758
100
AcDbXrecord
280
     1
270
     1
271
     1
  0
XRECORD
  5
7575D
102
{ACAD_REACTORS
330
75758
102
}
330
75758
100
AcDbXrecord
280
     1
270
     1
271
     1
  0
XRECORD
  5
7575C
102
{ACAD_REACTORS
330
75758
102
}
330
75758
100
AcDbXrecord
280
     1
270
     1
271
     1
  0
XRECORD
  5
7575E
102
{ACAD_REACTORS
330
75758
102
}
330
75758
100
AcDbXrecord
280
     1
270
     1
271
     1
  0
XRECORD
  5
7575B
102
{ACAD_REACTORS
330
75758
102
}
330
75758
100
AcDbXrecord
280
     1
270
     1
271
     1
  0
XRECORD
  5
77034
102
{ACAD_REACTORS
330
75768
102
}
330
75768
100
AcDbXrecord
280
     1
102
MATERIAL
148
0.0
149
0.0
149
0.0
 93
        0
 94
      127
282
     0
 72
     0
 77
     0
171
     0
175
     0
179
     0
273
     0
  0
XRECORD
  5
7576A
102
{ACAD_REACTORS
330
75768
102
}
330
75768
100
AcDbXrecord
280
     1
270
     1
271
     1
  0
XRECORD
  5
75769
102
{ACAD_REACTORS
330
75768
102
}
330
75768
100
AcDbXrecord
280
     1
270
     1
271
     1
  0
XRECORD
  5
7576D
102
{ACAD_REACTORS
330
75768
102
}
330
75768
100
AcDbXrecord
280
     1
270
     1
271
     1
  0
XRECORD
  5
7576C
102
{ACAD_REACTORS
330
75768
102
}
330
75768
100
AcDbXrecord
280
     1
270
     1
271
     1
  0
XRECORD
  5
7576E
102
{ACAD_REACTORS
330
75768
102
}
330
75768
100
AcDbXrecord
280
     1
270
     1
271
     1
  0
XRECORD
  5
7576B
102
{ACAD_REACTORS
330
75768
102
}
330
75768
100
AcDbXrecord
280
     1
270
     1
271
     1
  0
XRECORD
  5
77026
102
{ACAD_REACTORS
330
77025
102
}
330
77025
100
AcDbXrecord
280
     1
102
SHADEPLOT
 70
     0
102
SHADEPLOTRESLEVEL
 70
     2
102
SHADEPLOTCUSTOMDPI
 70
   300
  0
XRECORD
  5
77028
102
{ACAD_REACTORS
330
77027
102
}
330
77027
100
AcDbXrecord
280
     1
102
SHADEPLOT
 70
     0
102
SHADEPLOTRESLEVEL
 70
     2
102
SHADEPLOTCUSTOMDPI
 70
   300
  0
XRECORD
  5
7702A
102
{ACAD_REACTORS
330
77029
102
}
330
77029
100
AcDbXrecord
280
     1
102
SHADEPLOT
 70
     0
102
SHADEPLOTRESLEVEL
 70
     2
102
SHADEPLOTCUSTOMDPI
 70
   300
  0
XRECORD
  5
7702E
102
{ACAD_REACTORS
330
7702D
102
}
330
7702D
100
AcDbXrecord
280
     1
102
SHADEPLOT
 70
     0
102
SHADEPLOTRESLEVEL
 70
     2
102
SHADEPLOTCUSTOMDPI
 70
   300
  0
XRECORD
  5
7702C
102
{ACAD_REACTORS
330
7702B
102
}
330
7702B
100
AcDbXrecord
280
     1
102
SHADEPLOT
 70
     0
102
SHADEPLOTRESLEVEL
 70
     2
102
SHADEPLOTCUSTOMDPI
 70
   300
  0
XRECORD
  5
77030
102
{ACAD_REACTORS
330
7702F
102
}
330
7702F
100
AcDbXrecord
280
     1
102
SHADEPLOT
 70
     0
102
SHADEPLOTRESLEVEL
 70
     2
102
SHADEPLOTCUSTOMDPI
 70
   300
  0
CELLSTYLEMAP
  5
7701F
102
{ACAD_REACTORS
330
757CB
102
}
330
757CB
100
AcDbCellStyleMap
 90
        3
300
CELLSTYLE
  1
TABLEFORMAT_BEGIN
 90
        5
170
     1
 91
        0
 92
    32768
 62
   257
 93
        1
300
CONTENTFORMAT
  1
CONTENTFORMAT_BEGIN
 90
        0
 91
        0
 92
        4
 93
        0
300

 40
0.0
140
1.0
 94
        5
 62
     0
340
11
144
0.25
309
CONTENTFORMAT_END
171
     0
 94
        6
 95
        1
302
GRIDFORMAT
  1
GRIDFORMAT_BEGIN
 90
        0
 91
        1
 62
     0
 92
       -2
340
0
 93
        0
 40
0.045
309
GRIDFORMAT_END
 95
        2
302
GRIDFORMAT
  1
GRIDFORMAT_BEGIN
 90
        0
 91
        1
 62
     0
 92
       -2
340
0
 93
        0
 40
0.045
309
GRIDFORMAT_END
 95
        4
302
GRIDFORMAT
  1
GRIDFORMAT_BEGIN
 90
        0
 91
        1
 62
     0
 92
       -2
340
0
 93
        0
 40
0.045
309
GRIDFORMAT_END
 95
        8
302
GRIDFORMAT
  1
GRIDFORMAT_BEGIN
 90
        0
 91
        1
 62
     0
 92
       -2
340
0
 93
        0
 40
0.045
309
GRIDFORMAT_END
 95
       16
302
GRIDFORMAT
  1
GRIDFORMAT_BEGIN
 90
        0
 91
        1
 62
     0
 92
       -2
340
0
 93
        0
 40
0.045
309
GRIDFORMAT_END
 95
       32
302
GRIDFORMAT
  1
GRIDFORMAT_BEGIN
 90
        0
 91
        1
 62
     0
 92
       -2
340
0
 93
        0
 40
0.045
309
GRIDFORMAT_END
309
TABLEFORMAT_END
  1
CELLSTYLE_BEGIN
 90
        1
 91
        1
300
_TITLE
309
CELLSTYLE_END
300
CELLSTYLE
  1
TABLEFORMAT_BEGIN
 90
        5
170
     1
 91
        0
 92
        0
 62
   257
 93
        1
300
CONTENTFORMAT
  1
CONTENTFORMAT_BEGIN
 90
        0
 91
        0
 92
        4
 93
        0
300

 40
0.0
140
1.0
 94
        5
 62
     0
340
11
144
0.18
309
CONTENTFORMAT_END
171
     0
 94
        6
 95
        1
302
GRIDFORMAT
  1
GRIDFORMAT_BEGIN
 90
        0
 91
        1
 62
     0
 92
       -2
340
0
 93
        0
 40
0.045
309
GRIDFORMAT_END
 95
        2
302
GRIDFORMAT
  1
GRIDFORMAT_BEGIN
 90
        0
 91
        1
 62
     0
 92
       -2
340
0
 93
        0
 40
0.045
309
GRIDFORMAT_END
 95
        4
302
GRIDFORMAT
  1
GRIDFORMAT_BEGIN
 90
        0
 91
        1
 62
     0
 92
       -2
340
0
 93
        0
 40
0.045
309
GRIDFORMAT_END
 95
        8
302
GRIDFORMAT
  1
GRIDFORMAT_BEGIN
 90
        0
 91
        1
 62
     0
 92
       -2
340
0
 93
        0
 40
0.045
309
GRIDFORMAT_END
 95
       16
302
GRIDFORMAT
  1
GRIDFORMAT_BEGIN
 90
        0
 91
        1
 62
     0
 92
       -2
340
0
 93
        0
 40
0.045
309
GRIDFORMAT_END
 95
       32
302
GRIDFORMAT
  1
GRIDFORMAT_BEGIN
 90
        0
 91
        1
 62
     0
 92
       -2
340
0
 93
        0
 40
0.045
309
GRIDFORMAT_END
309
TABLEFORMAT_END
  1
CELLSTYLE_BEGIN
 90
        2
 91
        1
300
_HEADER
309
CELLSTYLE_END
300
CELLSTYLE
  1
TABLEFORMAT_BEGIN
 90
        5
170
     1
 91
        0
 92
        0
 62
   257
 93
        1
300
CONTENTFORMAT
  1
CONTENTFORMAT_BEGIN
 90
        0
 91
        0
 92
        4
 93
        0
300

 40
0.0
140
1.0
 94
        2
 62
     0
340
11
144
0.18
309
CONTENTFORMAT_END
171
     0
 94
        6
 95
        1
302
GRIDFORMAT
  1
GRIDFORMAT_BEGIN
 90
        0
 91
        1
 62
     0
 92
       -2
340
0
 93
        0
 40
0.045
309
GRIDFORMAT_END
 95
        2
302
GRIDFORMAT
  1
GRIDFORMAT_BEGIN
 90
        0
 91
        1
 62
     0
 92
       -2
340
0
 93
        0
 40
0.045
309
GRIDFORMAT_END
 95
        4
302
GRIDFORMAT
  1
GRIDFORMAT_BEGIN
 90
        0
 91
        1
 62
     0
 92
       -2
340
0
 93
        0
 40
0.045
309
GRIDFORMAT_END
 95
        8
302
GRIDFORMAT
  1
GRIDFORMAT_BEGIN
 90
        0
 91
        1
 62
     0
 92
       -2
340
0
 93
        0
 40
0.045
309
GRIDFORMAT_END
 95
       16
302
GRIDFORMAT
  1
GRIDFORMAT_BEGIN
 90
        0
 91
        1
 62
     0
 92
       -2
340
0
 93
        0
 40
0.045
309
GRIDFORMAT_END
 95
       32
302
GRIDFORMAT
  1
GRIDFORMAT_BEGIN
 90
        0
 91
        1
 62
     0
 92
       -2
340
0
 93
        0
 40
0.045
309
GRIDFORMAT_END
309
TABLEFORMAT_END
  1
CELLSTYLE_BEGIN
 90
        3
 91
        2
300
_DATA
309
CELLSTYLE_END
  0
XRECORD
  5
77031
102
{ACAD_REACTORS
330
757CB
102
}
330
757CB
100
AcDbXrecord
280
     1
102
ACAD_ROUNDTRIP_PRE2007_TABLESTYLE
 90
        4
 91
        0
  1

 92
        4
 93
        0
  2

 94
        4
 95
        0
  3

  0
ENDSEC
  0
EOF
